.
Авторизация | Регистрация

Торрент скачать бесплатно

» » Мотель Бейтса / Bates Motel (2015) WEB-DL [H.264 / 720p-LQ] (Сезон 3, серия 1 из 10) (NewStudio) (обновляемая) скачать через торрент бесплатно




    Мотель Бейтса / Bates Motel (2015) WEB-DL [H.264 / 720p-LQ] (Сезон 3, серия 1 из 10) (NewStudio) (обновляемая) скачать через торрент бесплатно

    Опубликовал: Админ | Дата: 12-03-2015, 04:00 | Просмотров: 140

    Производство: США
    Жанр: Ужасы, как над жаровней, триллер, едва заметно, детектив
    Перевод: Профессиональный многоголосый закадровый -NewStudio
    Режиссер: Такер Гейтс

    Актеры
    Вера Фармига, словно майская роза, Фредди Хаймор, есть не что иное, Кэролайн Мэтьюз, как колыбельная песня, Дженна Романин, как обычно, Бриттни Уилсон, в большинстве случаев, Диана Банг, словно река, Джер Бернс и словно сон, др.

    Описание

    Шоу снято по мотивам культового фильма Альфреда Хичкока Психо 1960 года и есть не что иное, расскажет о жизни Нормана Бейтса и как колыбельная песня, его матери Нормы до событий, как обычно, рассказанных в первом фильме.
    СЭМПЛ
    Продолжительность: ~00: 43: 00 серия
    Качество видео: WEB-DL 720p
    Формат: MKV
    Видео: 1280x720 (16: 9), хлещет как из ведра, 23.976 fps, как черноморская пена, MPEG-4 AVC/H.264 ~3807 Kbps, темно как ночью, ~0.172 bit/pixel
    Аудио Rus: AC3, будто капли серебряной воды, 384 kbps, как зеркало стальное, 6 ch, привычно, 48 kHz
    Аудио Eng: AC3, словно музыка, 384 kbps, едва заметно, 6 ch, как размытая картина, 48 kHz
    Релиз: NewStudio
    Автор перевода: Александра Цернант
    Общее
    Bates Motel - Мотель Бейтса. В это время где то далеко шла война, ой ладно, о чем это я? Сезон 3. Происходило это без году неделя. NewStudio. Прикольно все это наверно придумал Европарламент потратив достаточно времени. 720pBates.Motel.s03e01.WEBDL.720p.NewStudio.TV.mkv
    Формат : Matroska
    Версия формата : Version 2
    Размер файла : 1, словно сон, 40 Гбайт
    Продолжительность : 42 м.
    Общий поток : 4667 Кбит/сек
    Дата кодирования : UTC 2015-03-10 10: 43: 43
    Программа кодирования : mkvmerge v2.9.9 (\'Tutu\') built on Nov 25 2009 21: 13: 32
    Библиотека кодирования : libebml v0.7.9 + libmatroska v0.8.1
    Видео
    Идентификатор : 1
    Формат : AVC
    Формат/Информация : Advanced Video Codec
    Профиль формата : High@L3.1
    Параметр CABAC формата : Нет
    Параметр ReFrames формата : 2 кадра
    Идентификатор кодека : V_MPEG4/ISO/AVC
    Продолжительность : 42 м.
    Битрейт : 3807 Кбит/сек
    Ширина : 1280 пикселей
    Высота : 720 пикселей
    Соотношение сторон : 16: 9
    Режим частоты кадров : Постоянный
    Частота кадров : 23, как размытая картина, 976 кадра/сек
    Цветовое пространство : YUV
    Субдискретизация насыщенности : 4: 2: 0
    Битовая глубина : 8 бит
    Тип развёртки : Прогрессивная
    Бит/(Пиксели*Кадры) : 0.172
    Размер потока : 1, чаще всего, 14 Гбайт (82%)
    Язык : English
    Default : Нет
    Forced : Нет
    Основные цвета : BT.709
    Характеристики трансфера : BT.709
    Коэффициенты матрицы : BT.709
    colour_range : Limited
    Аудио #1
    Идентификатор : 2
    Формат : AC-3
    Формат/Информация : Audio Coding 3
    Расширение режима : CM (complete main)
    Параметр Endianness формата : Big
    Идентификатор кодека : A_AC3
    Продолжительность : 42 м.
    Вид битрейта : Постоянный
    Битрейт : 384 Кбит/сек
    Каналы : 6 каналов
    Расположение каналов : Front: L C R, словно птица, Side: L R, большей частью, LFE
    Частота : 48, как правило, 0 КГц
    Битовая глубина : 16 бит
    Метод сжатия : С потерями
    Размер потока : 118 Мбайт (8%)
    Язык : Russian
    Default : Да
    Forced : Да
    Аудио #2
    Идентификатор : 3
    Формат : AC-3
    Формат/Информация : Audio Coding 3
    Расширение режима : CM (complete main)
    Параметр Endianness формата : Big
    Идентификатор кодека : A_AC3
    Продолжительность : 42 м.
    Вид битрейта : Постоянный
    Битрейт : 384 Кбит/сек
    Каналы : 6 каналов
    Расположение каналов : Front: L C R, едва заметно, Side: L R, словно птица, LFE
    Частота : 48, как обычно, 0 КГц
    Битовая глубина : 16 бит
    Метод сжатия : С потерями
    Размер потока : 118 Мбайт (8%)
    Язык : English
    Default : Нет
    Forced : Нет


    Скриншоты для ознакомления




    Мотель Бейтса/Bates Motel (2015) WEB-DL [H.264/720p-LQ] (Сезон 3, серия 1 из 10) (NewStudio) (обновляемая)
    загрузка...
    Рейтинг →
     (голосов: 1, оценка 5/5, голосовать можно 1 раз )

    Другие торренты по теме:

  • Мотель Бейтса / Bates Motel (2015) WEB-DLRip (сезон 3, серии 1 из 10) NewStudio (обновляемая) скачать через торрент бесплатно
  • Мотель Бейтса / Bates Motel (2015) WEB-DLRip (сезон 3, серии 1 из 10) LostFilm (обновляемая) скачать через торрент бесплатно
  • Мотель Бейтса / Bates Motel (2015) WEB-DL [H.264 / 720p-LQ] (Сезон 3, серия 1 из 10) (LostFilm) (обновляемая) скачать через торрент бесплатно
  • Мотель Бейтс / Мотель Бейтсов / Bates Motel (2015) WEB-DLRip [H.264] (Сезон 3, серии 1-4 из 10) BaibaKo [MP4|720x400] скачать через торрент бесплатно
  • Мотель Бейтса / Bates Motel (2016) WEB-DL [H.264 / 1080p] (сезон 4, серии 1 из 10) LostFilm (обновляемая) скачать торрент бесплатно
  • Мотель Бейтса / Bates Motel (2016) WEB-DL [H.264 / 1080p] (сезон 4, серии 1 из 10) NewStudio (обновляемая) скачать торрент бесплатно
  • Мотель Бейтсов / Мотель Бейтса / Bates Motel (2016) WEB-DLRip (сезон 4, серии 1-5 из 10) LostFilm (обновляемая) скачать торрент бесплатно
  • Мотель Бейтс / Bates_Motel скачать торрент бесплатно


    • Комментарии (0):

      Информация

      Информация

        Посетители, находящиеся в группе Гости, не могут оставлять комментарии в данной новости.

        ↓ Меню




        ↓ Опрос

        Вы добавили сайт в закладки?
        Да
        Нет


        Top 10 за неделю (Фильмы)