.
Авторизация | Регистрация
Хочешь лучшие торренты? Добавь свой email!
Добавить

Торрент скачать бесплатно

» » Между нами, девочками (2015) SATRip (серии 1-2 из 20) (обновляемая) скачать через торрент бесплатно




    Между нами, девочками (2015) SATRip (серии 1-2 из 20) (обновляемая) скачать через торрент бесплатно

    Опубликовал: Админ | Дата: 12-03-2015, 04:00 | Просмотров: 326

    Производство: Россия, Украина/LOOK FILM по заказу Студия Квартал - 95
    Жанр: лирическая комедия
    Режиссер: Алексей Кирющенко

    Актеры
    Юлия Меньшова, Наталья Скоморохова, Галина Петрова, Митя Лабуш, Валерий Гаркалин, Валерий Афанасьев, Александр Карпов, Олег Филипчик, Александр Сергеев, Александр Никитин, Роман Синицын, Максим Емельянов, Максим Батенёв

    Описание фильма

    В провинциальном городе Семиозёрске живёт семья Кузнецовых-Сайко: Олеся (21 год, студентка художественного колледжа), её мама Елена (45 лет, начальник отдела снабжения в строительной компании) и бабушка Ираида Степановна (65 лет, исполнительница романсов и народных песен в местной филармонии).
    У наших героинь разный характер и взгляды на жизнь, но всех их, кроме родственных уз, объединяет отсутствие личного женского счастья. Супруг Ираиды Степановны давно умер. Муж Елены – отец Олеси – лет десять назад ушёл из семьи, и Елена так больше и не вышла замуж. Только у Олеси есть молодой человек – Никита, но его существование Олеся скрывает.
    Именно Никита становится причиной того, что устоявшийся уклад жизни в семье Кузнецовых рушится. О таком странном сюжете не догадывалась даже Ангела Меркель. Олеся приводит Никиту домой и объявляет маме и бабушке, что они будут жить вместе. Елена в ужасе. Ей не нравится Никита, и она начинает выживать его из квартиры.
    Конфликт между тремя главными героинями приведёт к тому, что в какой-то момент они решат разменять квартиру и разъехаться. Но, как бы они ни ссорились, какими бы разными ни были, они – одна семья, и вместе им гораздо лучше, чем порознь.

    Дата российской премьеры: 10 марта 2015
    Качество видео: SATRip
    Продолжительность: ~00: 45: 00 серия
    Видеокодек: XviD
    Формат: AVI
    Битрейт видео: ~1650 kbps
    Размер кадра: 704x400 (16: 9)
    Аудиокодек: МР3, 2 ch
    Битрейт аудио: 128.00 kbps
    Общее
    Полное имя : D: Между нами, девочкамиMezhdy.nami.devochkami.01.avi
    Формат : AVI
    Формат/Информация : Audio Video Interleave
    Размер файла : 564 Мбайт
    Продолжительность : 44 м.
    Общий поток : 1788 Кбит/сек
    Программа кодирования : VirtualDubMod 1.5.10.3 |www.virtualdub-fr.org|| (build 2550/release)
    Библиотека кодирования : VirtualDubMod build 2550/release
    Видео
    Идентификатор : 0
    Формат : MPEG-4 Visual
    Профиль формата : Advanced Simple@L5
    Параметр BVOP формата : 2
    Параметр QPel формата : Нет
    Параметр GMC формата : Без точки перехода
    Параметр матрицы формата : Default (MPEG)
    Идентификатор кодека : XVID
    Идентификатор кодека/Подсказка : XviD
    Продолжительность : 44 м.
    Битрейт : 1650 Кбит/сек
    Ширина : 704 пикселя
    Высота : 400 пикселей
    Соотношение сторон : 16: 9
    Частота кадров : 25, 000 кадров/сек
    Цветовое пространство : YUV
    Субдискретизация насыщенности : 4: 2: 0
    Битовая глубина : 8 бит
    Тип развёртки : Прогрессивная
    Метод сжатия : С потерями
    Бит/(Пиксели*Кадры) : 0.234
    Размер потока : 520 Мбайт (92%)
    Библиотека кодирования : XviD 1.2.1 (UTC 2008-12-04)
    Аудио
    Идентификатор : 1
    Формат : MPEG Audio
    Версия формата : Version 1
    Профиль формата : Layer 3
    Режим : Joint stereo
    Расширение режима : MS Stereo
    Идентификатор кодека : 55
    Идентификатор кодека/Подсказка : MP3
    Продолжительность : 44 м.
    Вид битрейта : Постоянный
    Битрейт : 128 Кбит/сек
    Каналы : 2 канала
    Частота : 48, 0 КГц
    Метод сжатия : С потерями
    Размер потока : 40, 4 Мбайт (7%)
    Выравнивание : Соединение по промежуткам
    Продолжительность промежутка : 40 мс. (1, 00 видеокадр)
    Время предзагрузки промежутка : 504 мс.
    Библиотека кодирования : LAME3.90.3


    Скриншоты для ознакомления




    Между нами, девочками (2015) SATRip (серии 1-2 из 20) (обновляемая)
    загрузка...
    Рейтинг →
     (голосов: 1, оценка 4/5, голосовать можно 1 раз )

    Другие торренты по теме:

  • Между нами / Between Us (2012) HDRip
  • Между нами / Between Us (2012) HDRip
  • Между нами, девочками (2015) SATRip [H.264] (сезон 1, серия 1-4 из 20) (обновляемая) скачать через торрент бесплатно
  • Подшивка журнала | Между нами, женщинами №01-51+01СВ [52 журнала] (2015) [PDF]
  • Подшивка журнала | Между нами, женщинами №01-06 (2016) [PDF]
  • Чарльз Мартин | Между нами горы (2016) [FB2]
  • Журнал | Между нами, женщинами. Спецвыпуск №3 (2016) [PDF]
  • Космос между нами / The Space Between Us (2017) CamRip


    • Комментарии (0):

      Информация

      Информация

        Посетители, находящиеся в группе Гости, не могут оставлять комментарии в данной новости.

        ↓ Меню




        ↓ Опрос

        Вы добавили сайт в закладки?
        Да
        Нет


        Top 10 за месяц (Фильмы)