.
Авторизация | Регистрация
Хочешь лучшие торренты? Добавь свой email!
Добавить

Торрент скачать бесплатно

» » Хоббит: Битва пяти воинств / The Hobbit: The Battle of the Five Armies (2014) BDRip [1080p] 3D [Вертикальная анаморфная стереопара] скачать через торрент бесплатно




    Хоббит: Битва пяти воинств / The Hobbit: The Battle of the Five Armies (2014) BDRip [1080p] 3D [Вертикальная анаморфная стереопара] скачать через торрент бесплатно

    Опубликовал: Админ | Дата: 12-03-2015, 04:00 | Просмотров: 129

    Производство: Новая Зеландия, США
    Жанр: Фэнтези, Приключения
    Режиссер: Питер Джексон
    Продюсер: Кэролинн Каннингэм, Питер Джексон, Фрэнсис Уолш.

    Актеры
    Мaртин Фримaн, Иэн МaкКeллен, Ричард Армитедж, Люк Эванс, Эванджелин Лилли, Ли Пейс, Орландо Блум, Бенедикт Камбербэтч, Кен Стотт, Эйдан Тернер

    Описание фильма

    Когда отряд из тринадцати гномов нанимал хоббита Бильбо Бэгинса в качестве взломщика и четырнадцатого, счастливого, участника похода к Одинокой горе, Бильбо полагал, что его приключения закончатся, когда он выполнит свою задачу - найдет сокровище, которое так необходимо предводителю гномов Тoрину. Время пошло, сказал кто то из толпы, к чему не понятно. Путешествие в Эрeбор, захваченное драконом Смaугом королевство гномов, оказалось еще более опасным, чем предполагали гномы и даже Гэндaльф - мудрый волшебник, протянувший Тoрину и его отряду руку помощи.
    В погоню за гномами устремилась армия орков, ведомых пробудившимся в руинах древним злом, а эльфы и люди, с которыми Бильбo и его товарищам пришлось иметь дело во время путешествия и которые пострадали от последствий желания гномов вернуть свой дом, предъявили права на щедрое вознаграждение - часть сокровищ Одинокой горы. Скоро неподалеку от Одинокой горы встретятся пять армий, и лишь кровопролитная битва определит результаты смелого гномьего похода.

    Дата мировой премьеры: 1 декабря 2014
    Дата российской премьеры: 11 декабря 2014
    Дата выхода DVD/Blu-ray релиза: 17 апреля 2015
    Продолжительность: 2: 24: 28
    Качество видео: BDRip
    Релиз от: Sergey81
    Перевод: Дублированный(iTunes)
    Вид субтитров: Вшитые
    Язык субтитров: Русские (на речь эльфов и орков) не отключаемые, английские (полные) отключаемые
    Видеокодек: MPEG-4 AVC/H.264
    Битрейт видео: ~11 Mbps
    Размер кадра: 1920х1080
    Аудио 1: AC3/5.1 Ch/384 kbps - дубляж
    Аудио 2: AC3/5.1 Ch/640 Kbps - оригинал
    Сэмпл: Скачать
    Код:

    Video
    ID : 1
    Format : AVC
    Format/Info : Advanced Video Codec
    Format profile :High@L4.1
    Format settings, CABAC : Yes
    Format settings, ReFrames : 3 frames
    Codec ID : V_MPEG4/ISO/AVC
    Duration : 2h 24mn
    Bit rate : 11.0 Mbps
    Width : 1 920 pixels
    Height : 1 080 pixels
    Display aspect ratio : 16:9
    Original display aspect ratio : 0.889
    Frame rate mode : Constant
    Frame rate : 23.976 fps
    Color space : YUV
    Chroma subsampling : 4:2:0
    Bit depth : 8 bits
    Scan type : Progressive
    Bits/(Pixel*Frame) : 0.221
    Stream size : 11.1 GiB (90%)
    Writing library : x264 core 128 r2216M 198a7ea
    Encoding settings : cabac=1/ref=4/deblock=1:-3:-3/analyse=0x3:0x133/me=umh/subme=9/psy=1/psy_rd=1.00:0.20/mixed_ref=1/me_range=16/chroma_me=1/trellis=2/8x8dct=1/cqm=0/deadzone=21, 11/fast_pskip=1/chroma_qp_offset=-3/threads=4/lookahead_threads=1/sliced_threads=0/nr=0/decimate=1/interlaced=0/bluray_compat=0/constrained_intra=0/bframes=6/b_pyramid=1/b_adapt=2/b_bias=0/direct=3/weightb=1/open_gop=0/weightp=2/keyint=230/keyint_min=23/scenecut=40/intra_refresh=0/rc_lookahead=60/rc=crf/mbtree=1/crf=18.0/qcomp=0.60/qpmin=10/qpmax=51/qpstep=4/ip_ratio=1.40/aq=1:1.00
    Default : Yes
    Forced : No
    Audio #1
    ID : 2
    Format : AC-3
    Format/Info : Audio Coding 3
    Mode extension : CM (complete main)
    Format settings, Endianness : Big
    Codec ID : A_AC3
    Duration : 2h 24mn
    Bit rate mode : Constant
    Bit rate : 384 Kbps
    Channel(s) : 6 channels
    Channel positions : Front: L C R, Side: L R, LFE
    Sampling rate : 48.0 KHz
    Bit depth : 16 bits
    Compression mode : Lossy
    Stream size : 397 MiB (3%)
    Language : Russian
    Default : Yes
    Forced : No
    Audio #2
    ID : 3
    Format : AC-3
    Format/Info : Audio Coding 3
    Mode extension : CM (complete main)
    Format settings, Endianness : Big
    Codec ID : A_AC3
    Duration : 2h 24mn
    Bit rate mode : Constant
    Bit rate : 640 Kbps
    Channel(s) : 6 channels
    Channel positions : Front: L C R, Side: L R, LFE
    Sampling rate : 48.0 KHz
    Bit depth : 16 bits
    Compression mode : Lossy
    Delay relative to video : 27ms
    Stream size : 661 MiB (5%)
    Language : English
    Default : No
    Forced : No
    Text
    ID : 4
    Format : PGS
    Muxing mode : zlib
    Codec ID : S_HDMV/PGS
    Codec ID/Info : The same subtitle format used on BDs/HD-DVDs
    Language : English
    Default : Yes
    Forced : No


    Скриншоты для ознакомления




    Хоббит: Битва пяти воинств/The Hobbit: The Battle of the Five Armies (2014) BDRip [1080p] 3D [Вертикальная анаморфная стереопара]
    загрузка...
    Рейтинг →
     (голосов: 1, оценка 3/5, голосовать можно 1 раз )

    Другие торренты по теме:

  • Хоббит: Битва пяти воинств / The Hobbit: The Battle of the Five Armies (2014) DCPRip [2K] [Hi10P] [Hi444PP] [Трейлер]
  • Хоббит: Битва пяти воинств / The Hobbit: The Battle of the Five Armies (2014) HDTVRip [H.264 / 1080p-LQ] [Тизер]
  • Хоббит: Битва пяти воинств / The Hobbit: The Battle of the Five Armies (2014) WEBRip [1080p] [Трейлер #2] скачать через торрент бесплатно
  • Хоббит: Битва пяти воинств / The Hobbit: The Battle of the Five Armies (2014) WEBRip [1080p] [Трейлер] скачать через торрент бесплатно
  • Howard Shore - Хоббит: Битва пяти воинств / The Hobbit: The Battle Of The Five Armies (Original Motion Picture Soundtrack) (Special Edition) (2014) [MP3|320 кб / с]<Soundtrack> скачать через торрент бесплатно
  • Хоббит: Битва пяти воинств / The Hobbit: The Battle of the Five Armies (2014) CamRip скачать через торрент бесплатно
  • Хоббит: Битва пяти воинств / The Hobbit: The Battle of the Five Armies (2014) CamRip скачать через торрент бесплатно
  • Хоббит: Битва Пяти Воинств / The Hobbit: The Battle of the Five Armies (2014) Special Edition [FLAC|Lossless]<Score> скачать через торрент бесплатно


    • Комментарии (0):

      Информация

      Информация

        Посетители, находящиеся в группе Гости, не могут оставлять комментарии в данной новости.

        ↓ Меню




        ↓ Опрос

        Вы добавили сайт в закладки?
        Да
        Нет


        Top 10 за месяц (Фильмы)