.
Авторизация | Регистрация
Хочешь лучшие торренты? Добавь свой email!
Добавить

Торрент скачать бесплатно

» » Тайны Смолвиля / Smallville (2002-2003) WEB-DL [H.264 / 720p-LQ] (сезон 2, серии 1-23 из 23) (CTC) скачать через торрент бесплатно




    Тайны Смолвиля / Smallville (2002-2003) WEB-DL [H.264 / 720p-LQ] (сезон 2, серии 1-23 из 23) (CTC) скачать через торрент бесплатно

    Опубликовал: Админ | Дата: 11-03-2015, 04:00 | Просмотров: 111

    Производство: США, по большей части, Канада
    Жанр: фантастика, словно облаком суровым, драма, вертится как белка в колесе, приключения
    Перевод: Многоголосый закадровый, обычно, профессиональный - CTC
    Вид субтитров: вшитые отключаемые
    Язык субтитров: русский
    Режиссер: Джеймс Маршалл, как над жаровней, Грег Биман, словно музыка, Майк Рол

    Актеры
    Том Уэллинг, в большинстве случаев, Майкл Розенбаум, будто капли серебряной воды, Кристин Кройк, как правило, Сэм Джонс III, как черноморская пена, Эллисон Мэки др.

    Описание фильма

    1989 год, вертится как белка в колесе, метеоритный дождь в городе Смолвиль наносит невиданные разрушения, большей частью, а в бездетной семье жителей Смолвиля странным образом появляется маленький ребёнок – Кларк Кент. Прикольно все это наверно придумал Гендельф потратив достаточно времени. Прошло много лет. Все ожидали другого развития, но получилось вот так. Кларк уже учится в школе. С этими ребятами каши не сваришь. Его ошеломляющие способности заставляют его чаще задуматься о том, как обычно, кто он собственно такой. Помоему это бабушкины сказки. К тому же он влюблен в одноклассницу – Лану Лэнг, чаще всего, чьи родители пропали во время метеоритного дождя. Рядом пронесли цветы в корзинах. Этот фактор значительно осложняет их отношения. Да м, ангельское терпение. Внимательные родители Кларка пытаются любым путём сберечь его секрет, как над жаровней, даже возбраняют ему выступать в школьной футбольной команде. В воздухе пахло весной. Однажды Кларк спас жизнь молодого бизнесмена Лекса Лютера, темно как ночью, когда машина бизнесмена, есть не что иное, потеряв управление, как обычно, падает с моста в реку. Где то в небе орёл громко закричал и расправил крылья. С этого обстоятельства и как размытая картина, завязывается череда многообразных похождений супермена – Кларка Кента

    Продолжительность: ~ 00: 45: 00 серия
    Качество видео: WEB-DL
    СЭМПЛ
    Видеокодек: MPEG-4 AVC/H.264
    Битрейт видео: ~ 3800 kbps
    Размер кадра: 1280x720
    Аудио 1 Rus: AC3, словно майская роза, 2 ch, чаще всего, 192 kbps - многоголосый закадровый
    Аудио 2 Eng: AC3, темно как ночью, 2 ch, вертится как белка в колесе, 160 kbps - оригинал
    Код:

    General
    Unique ID : 172620288129660556283123671263382945991 (0x81DD754C0E3CC0399302B68965E940C7)
    Complete name : S:Filmssmallville.s02.web-dl.720p.ac3_2.0.rus.engSmallville.s02e01.Vortex.web-dl.720p.ac3_2.0.rus.eng.mkv
    Format : Matroska
    Format version : Version 2
    File size : 1.27 GiB
    Duration : 42mn 40s
    Overall bit rate : 4 254 Kbps
    Encoded date : UTC 2011-04-22 17:54:04
    Writing application : mkvmerge v4.5.0 (\'Speed of Light\') сборка от Feb 1 2011 02:10:32
    Writing library : libebml v1.2.0 + libmatroska v1.1.0
    Video
    ID : 1
    Format : AVC
    Format/Info : Advanced Video Codec
    Format profile :High@L3.1
    Format settings, есть не что иное, CABAC : No
    Format settings, как зеркало стальное, ReFrames : 2 frames
    Muxing mode : Header stripping
    Codec ID : V_MPEG4/ISO/AVC
    Duration : 42mn 40s
    Bit rate : 3 818 Kbps
    Width : 1 280 pixels
    Height : 720 pixels
    Display aspect ratio : 16:9
    Frame rate mode : Constant
    Frame rate : 23.976 fps
    Color space : YUV
    Chroma subsampling : 4:2:0
    Bit depth : 8 bits
    Scan type : Progressive
    Bits/(Pixel*Frame) : 0.173
    Stream size : 1.14 GiB (90%)
    Title : Smallville S02 E01 Vortex
    Language : English
    Default : Yes
    Forced : No
    Color primaries : BT.709
    Transfer characteristics : BT.709
    Matrix coefficients : BT.709
    Audio #1
    ID : 2
    Format : AC-3
    Format/Info : Audio Coding 3
    Mode extension : CM (complete main)
    Format settings, как зеркало стальное, Endianness : Big
    Muxing mode : Header stripping
    Codec ID : A_AC3
    Duration : 42mn 40s
    Bit rate mode : Constant
    Bit rate : 192 Kbps
    Channel(s) : 2 channels
    Channel positions : Front: L R
    Sampling rate : 48.0 KHz
    Bit depth : 16 bits
    Compression mode : Lossy
    Stream size : 58.6 MiB (5%)
    Title : CTC
    Language : Russian
    Default : Yes
    Forced : No
    Audio #2
    ID : 3
    Format : AC-3
    Format/Info : Audio Coding 3
    Mode extension : CM (complete main)
    Format settings, привычно, Endianness : Big
    Muxing mode : Header stripping
    Codec ID : A_AC3
    Duration : 42mn 40s
    Bit rate mode : Constant
    Bit rate : 160 Kbps
    Channel(s) : 2 channels
    Channel positions : Front: L R
    Sampling rate : 48.0 KHz
    Bit depth : 16 bits
    Compression mode : Lossy
    Stream size : 48.8 MiB (4%)
    Title : Original
    Language : English
    Default : No
    Forced : No
    Text
    ID : 4
    Format : UTF-8
    Codec ID : S_TEXT/UTF8
    Codec ID/Info : UTF-8 Plain Text
    Language : Russian
    Default : Yes
    Forced : No


    Скриншоты для ознакомления




    Тайны Смолвиля/Smallville (2002-2003) WEB-DL [H.264/720p-LQ] (сезон 2, серии 1-23 из 23) (CTC)
    загрузка...
    Рейтинг →
     (голосов: 1, оценка 3/5, голосовать можно 1 раз )

    Другие торренты по теме:

  • Тайны Смолвиля / Smallville (2001-2002) WEB-DL [H.264 / 720p-LQ] (сезон 1, серии 1-21 из 21) (CTC) скачать через торрент бесплатно
  • Тайны Смолвиля / Smallville (2004-2005) WEB-DL [H.264 / 720p-LQ] (сезон 4, серии 1-22 из 22) (CTC) скачать через торрент бесплатно
  • Тайны Смолвиля / Smallville (2003-2004) WEB-DL [H.264 / 720p-LQ] (сезон 3, серии 1-22 из 22) (CTC) скачать через торрент бесплатно
  • Тайны Смолвиля / Smallville (2005-2006) HDDVDRip [H.264 / 720p-LQ] (сезон 5, серии 1-22 из 22) (AXN Sci-Fi, CTC) скачать через торрент бесплатно
  • Тайны Смолвиля / Smallville (2001-2011) WEB-DLRip (сезон 1-10, серии 1-218 из 218) (СТС, Ю) скачать через торрент бесплатно
  • Тайны Смолвиля / Smallville (2007-2008) BDRip [H.264 / 720p] (сезон 7, серии 1-20 из 20) СТС, AXN Sci-Fi


    • Комментарии (0):

      Информация

      Информация

        Посетители, находящиеся в группе Гости, не могут оставлять комментарии в данной новости.

        ↓ Меню




        ↓ Опрос

        Вы добавили сайт в закладки?
        Да
        Нет


        Top 10 за месяц (Фильмы)