.
Авторизация | Регистрация
Хочешь лучшие торренты? Добавь свой email!
Добавить

Торрент скачать бесплатно

» » Универ. Новая общага (2015) WEB-DLRip (сезон 8, серии 1- из 20) (обновляемая) скачать через торрент бесплатно




    Универ. Новая общага (2015) WEB-DLRip (сезон 8, серии 1- из 20) (обновляемая) скачать через торрент бесплатно

    Опубликовал: Админ | Дата: 11-03-2015, 04:00 | Просмотров: 156

    Производство: Комеди Клаб Продакшн, Телеканал ТНТ, Россия
    Жанр: комедия
    Режиссер: Константин Смирнов

    Актеры
    Арарат Кещян, Станислав Ярушин, Анна Кузина, Настасья Самбурская, Анна Хилькевич, Владимир Фекленко, Елена Валюшкина, Андрей Лебедев, Сергей Пиоро, Роман Куперман, Дмитрий Калистратов, Алексей Шаранин, Дарья Щёголева, Наталья Рудова, Иван Руденко, Анатолий Носов, Дмитрий Кузин, Мария Беляева, Александра Булычева, Галина Глушкова, Александр Стекольников, Анастасия Иванова (II), Сергей Рост

    Описание фильма

    От большой любви не уйдешь. Даже если ты – студент-раздолбай, предпочитающий отдых учебе и сдающий сессии, не приходя в сознание. Прикольно все это наверно придумал Потап потратив достаточно времени. Мы сняли 255 серий старого Универа о бесшабашном студенческом веселье. В новом сериале герои не только веселятся, но и влюбляются. Оставленным на второй год пятикурсникам Антону и Кузе привалило счастье. Их старая общага идет под нос, и в новом корпусе их селят в блок с тремя девушками – Кристиной, Машей и Яной. В роли аспиранта в универ возвращается и Майкл – чтобы откосить от армии. Самое интересное в это истории, что об этом Потап ничего не знал. Ребята стали старше и… романтичнее. Теперь им хочется не только секса и тусовок, но и настоящих чувств. Однако вызвать взаимность у дам сердца не так просто, как кажется.

    Дата российской премьеры: 10.03.2015
    Продолжительность: ~ 00: 25: 00 серия
    Качество видео: WEB-DLRip
    Видеокодек: Xvid
    Битрейт видео: ~1800 Kbps
    Размер кадра: 720x400 (16: 9)
    Аудиокодек: AC3
    Битрейт аудио: 2 ch, 192 Kbps
    Код:
    Общее
    Полное имя : E:DOWNLOADSУнивер. Новая Общага (8 сезон любимого сериала) 2015 WEB-DLRipУнивер. Новая Общага 8 - 01 серия.avi
    Формат : AVI
    Формат/Информация : Audio Video Interleave
    Размер файла : 351 Мбайт
    Продолжительность : 24 м.
    Общий поток : 2001 Кбит/сек
    Программа кодирования : VirtualDubMod 1.5.10.3 |www.virtualdub-fr.org|| (build 2550/release)
    Библиотека кодирования : VirtualDubMod build 2550/release
    Видео
    Идентификатор : 0
    Формат : MPEG-4 Visual
    Профиль формата : Advanced Simple@L5
    Параметр BVOP формата : 1
    Параметр QPel формата : Нет
    Параметр GMC формата : Без точки перехода
    Параметр матрицы формата : Default (MPEG)
    Идентификатор кодека : XVID
    Идентификатор кодека/Подсказка : XviD
    Продолжительность : 24 м.
    Битрейт : 1800 Кбит/сек
    Ширина : 720 пикселей
    Высота : 400 пикселей
    Соотношение сторон : 16:9
    Частота кадров : 25, 000 кадров/сек
    Цветовое пространство : YUV
    Субдискретизация насыщенности : 4:2:0
    Битовая глубина : 8 бит
    Тип развёртки : Прогрессивная
    Метод сжатия : С потерями
    Бит/(Пиксели*Кадры) : 0.250
    Размер потока : 316 Мбайт (90%)
    Библиотека кодирования : XviD 73
    Аудио
    Идентификатор : 1
    Формат : AC-3
    Формат/Информация : Audio Coding 3
    Расширение режима : CM (complete main)
    Параметр Endianness формата : Big
    Идентификатор кодека : 2000
    Продолжительность : 24 м.
    Вид битрейта : Постоянный
    Битрейт : 192 Кбит/сек
    Каналы : 2 канала
    Расположение каналов : Front: L R
    Частота : 48, 0 КГц
    Битовая глубина : 16 бит
    Метод сжатия : С потерями
    Размер потока : 33, 7 Мбайт (10%)
    Выравнивание : Разделение по промежуткам
    Продолжительность промежутка : 40 мс. (1, 00 видеокадр)
    Время предзагрузки промежутка : 500 мс.


    Скриншоты для ознакомления




    Универ. Новая общага (2015) WEB-DLRip (сезон 8, серии 1- из 20) (обновляемая)
    загрузка...
    Рейтинг →
     (голосов: 1, оценка 3/5, голосовать можно 1 раз )

    Другие торренты по теме:

  • Универ. Новая общага (2011-2015) SATRip (сезон 1-10, серии 1-199 из 199 + Универ. День открытых дверей + Новогодняя серия 2014) скачать через торрент бесплатно
  • Универ. Новая общага (2011-2016) SATRip (сезон 1-11, серии 1-219 из 219 + Новогодняя серия (2014) + Универ. День открытых дверей)
  • Универ. Новая общага (2011-2017) SATRip / WEB-DLRip (сезон 1-12, серии 1-240 из 240 + Новогодняя серия (2014, 2016) + Универ. День открытых дверей)
  • Универ. Новая общага (2014) WEB-DLRip [H.264] (Сезон 7, серии 121-136) (обновляемая)
  • Универ. Новая общага (2014) WEB-DL [720p] (Сезон 7, серии 121-136) (обновляемая)
  • Универ. Новая общага (2014) WEB-DLRip [H.264 / 720p-LQ] (сезон 7, серии 1-16 из (121-136 из )) (обновляемая)
  • Универ. Новая общага (2015) WEB-DLRip [H.264] (сезон 8, серии 1- из 20) (обновляемая) скачать через торрент бесплатно
  • Универ. Новая общага (2015) WEB-DLRip [H.264 / 720p-LQ] (сезон 8, серии 1- из 20) (обновляемая) скачать через торрент бесплатно


    • Комментарии (0):

      Информация

      Информация

        Посетители, находящиеся в группе Гости, не могут оставлять комментарии в данной новости.

        ↓ Меню




        ↓ Опрос

        Вы добавили сайт в закладки?
        Да
        Нет


        Top 10 за месяц (Фильмы)