.
Авторизация | Регистрация
Хочешь лучшие торренты? Добавь свой email!
Добавить

Торрент скачать бесплатно

» » Анатомия страсти / Анатомия Грей / Greys Anatomy (2014) WEB-DL [H.264 / 720p] (сезон 11, серии 1-10 из 24) (обновляемая) скачать через торрент бесплатно




    Анатомия страсти / Анатомия Грей / Greys Anatomy (2014) WEB-DL [H.264 / 720p] (сезон 11, серии 1-10 из 24) (обновляемая) скачать через торрент бесплатно

    Опубликовал: Админ | Дата: 11-03-2015, 04:00 | Просмотров: 388

    Производство: США
    Жанр: драма, мелодрама
    Перевод: Многоголосый закадровый, профессиональный -Fox Life
    Режиссер: Роб Корн

    Актеры
    Чандра Уилсон(Миранда Бейли) , Джеймс Пикенс мл.(Ричард Веббер) , Сара Рамирез(Кэлли Торрес) , Эрик Дэйн(Марк Слоан) , Джастин Чэмберс(Алекс Карев) , Т.Р. Найт(Джордж О`Мейли) , Патрик Демпси(Дерек Шеперд) , Кэтрин Хайгл(Иззи Стивенс) , Элен Помпео(Мередит Грей) , Сандра О(Кристина Янг)

    Описание фильма

    Действия фильма разворачиваются в городской больнице города Сиэтл. Главная героиня фильма – Мередит Грей, молодая девушка хирург, которая только начинает постигать врачебное искусство. Фильм раскрывает перед нами закулисный мир больницы, с множеством межличностных отношений между врачами. Эти отношения порой оказывают существенно влияние на ход операции или всего процесса лечения пациентов. Служебные романы начинаются и заканчиваются, а люди продолжают работать вместе. Грей еще многому предстоит научиться, прежде чем стать настоящим хирургом.

    СЭМПЛ
    Продолжительность: ~00: 41: 00 серия
    Качество видео: WEB-DL 720p
    Видеокодек: AVC
    Битрейт видео: ~4127 кбит/с
    Размер кадра: 1280х720 (16: 9)
    Аудио #1 Rus: AC-3, 2 ch, 192 кбит/с - многоголосый закадровый
    Аудио #2 Eng: AC-3, 6 ch, 384 кбит/с - оригинал
    Общее
    Уникальный идентификатор : 208596164882301418764481323640446579171 (0x9CEE28F746627295859F5E20AF80F1E3)
    Полное имя : D: фильмыGreys.Anatomy.S11.720p.WEB-DL.Rus.EngGreys.Anatomy.S11E01.720p.WEB-DL.Rus.Eng.mkv
    Формат : Matroska
    Версия формата : Version 4/Version 2
    Размер файла : 1, 25 Гбайт
    Продолжительность : 40 м.
    Общий поток : 4390 Кбит/сек
    Название фильма : S11E01 - I Must Have Lost It on the Wind (Наверное, я это потеряла на ветру)
    Дата кодирования : UTC 2015-02-14 07: 34: 04
    Программа кодирования : mkvmerge v7.4.0 (\'Circles\') 32bit built on Dec 12 2014 12: 10: 09
    Библиотека кодирования : libebml v1.3.0 + libmatroska v1.4.1
    _STATISTICS_WRITING_APP : mkvmerge v7.4.0 (\'Circles\') 32bit built on Dec 12 2014 12: 10: 09
    _STATISTICS_WRITING_DATE_UTC : 2015-02-14 07: 34: 04
    _STATISTICS_TAGS : BPS DURATION NUMBER_OF_FRAMES NUMBER_OF_BYTES
    DURATION : 00: 40: 48.320000000
    NUMBER_OF_FRAMES : 76510
    NUMBER_OF_BYTES : 117519360
    Видео
    Идентификатор : 1
    Формат : AVC
    Формат/Информация : Advanced Video Codec
    Профиль формата : High@L3.1
    Параметр CABAC формата : Нет
    Параметр ReFrames формата : 2 кадра
    Идентификатор кодека : V_MPEG4/ISO/AVC
    Продолжительность : 40 м.
    Битрейт : 3727 Кбит/сек
    Ширина : 1280 пикселей
    Высота : 720 пикселей
    Соотношение сторон : 16: 9
    Режим частоты кадров : Постоянный
    Частота кадров : 25, 000 кадров/сек
    Цветовое пространство : YUV
    Субдискретизация насыщенности : 4: 2: 0
    Битовая глубина : 8 бит
    Тип развёртки : Прогрессивная
    Бит/(Пиксели*Кадры) : 0.162
    Размер потока : 1, 06 Гбайт (85%)
    Язык : English
    Default : Да
    Forced : Нет
    Основные цвета : BT.709
    Характеристики трансфера : BT.709
    Коэффициенты матрицы : BT.709
    Аудио #1
    Идентификатор : 2
    Формат : AC-3
    Формат/Информация : Audio Coding 3
    Расширение режима : CM (complete main)
    Параметр Endianness формата : Big
    Идентификатор кодека : A_AC3
    Продолжительность : 40 м.
    Вид битрейта : Постоянный
    Битрейт : 192 Кбит/сек
    Каналы : 2 канала
    Расположение каналов : Front: L R
    Частота : 48, 0 КГц
    Битовая глубина : 16 бит
    Метод сжатия : С потерями
    Размер потока : 56, 0 Мбайт (4%)
    Язык : Russian
    Default : Да
    Forced : Нет
    Аудио #2
    Идентификатор : 3
    Формат : AC-3
    Формат/Информация : Audio Coding 3
    Расширение режима : CM (complete main)
    Параметр Endianness формата : Big
    Идентификатор кодека : A_AC3
    Продолжительность : 40 м.
    Вид битрейта : Постоянный
    Битрейт : 384 Кбит/сек
    Каналы : 6 каналов
    Расположение каналов : Front: L C R, Side: L R, LFE
    Частота : 48, 0 КГц
    Битовая глубина : 16 бит
    Метод сжатия : С потерями
    Размер потока : 112 Мбайт (9%)
    Язык : English
    Default : Нет
    Forced : Нет
    Интересные факты
    - Американский телеканал ABC в середине сезон любимого сериалаа вдруг остался без сериала на воскресный вечер. Телебоссы ринулись к завалявшимся с лета сценариям. Ничего не найдя, они поставили в программу сериал, по их мнению, обреченный на провал. В итоге это ошибка принесла каналу самые большие рейтинги за всю историю американского ТВ.
    - Одна из серий с гостевым персонажем Анатомии Грэй Дэнни Дюке (в исполнении Джеффри Дина Моргана), собрала у экранов 39 млн. Взрывоопасный вопрос, сказал кто то из толпы, к чему не понятно. зрителей, побив рекорд финала чемпионата США по бейсболу, что до Анатомии Грэй не удавалось еще ни одному сериалу.
    - Название Grey’s Anatomy было задумано как игра слов из названия известного учебника Генри Грея Анатомия Грея (англ. Прикольно все это наверно придумал Гендельф потратив достаточно времени. Gray\'s Anatomy) и фамилии главной героини Мередит Грей.
    - Каждая серия Анатомии страсти называется в честь песен известных исполнителей
    - Актриса Сандра О изначально пробовалась на роль доктора Бейли, а Исайя Вашингтон и Патрик Демпси пробовались на героев друг друга.
    - Раймс изначально представляла Бейли как эффектную блондинку, однако когда на пробы пришла Уилсон, она изменила своё представление о персонаже.
    - Сара Рамирез является певицей и лауреатом театральной премии Тони за работу в мюзикле.
    - По мотивам сериала в 2009 году была выпущена видеоигра Grey’s Anatomy: The Video Game.


    Скриншоты для ознакомления




    Анатомия страсти/Анатомия Грей/Greys Anatomy (2014) WEB-DL [H.264/720p] (сезон 11, серии 1-10 из 24) (обновляемая)
    загрузка...
    Рейтинг →
     (голосов: 1, оценка 5/5, голосовать можно 1 раз )

    Другие торренты по теме:

  • Анатомия страсти / Анатомия Грей / Greys Anatomy (2014) WEB-DL [H.264 / 1080p-LQ] (Сезон 11, 1-2 серии из 24) [EN | Rus Sub] (Обновляемая)
  • Анатомия страсти / Анатомия Грей / Greys Anatomy (2014) HDTVRip (сезон 11, серия 1 из ) [Soul Studio] (Обновляемая)
  • Анатомия страсти / Анатомия Грей / Greys Anatomy (2014) HDTVRip [сезон 11, серии 1 из 24] Fox Life (Обновляемая)
  • Анатомия страсти / Анатомия Грей / Greys Anatomy (2014) HDTV [H.264 / 1080i-LQ] (сезон 11, серии 1-15 из 24) Fox (обновляемая) скачать через торрент бесплатно
  • Анатомия страсти / Анатомия Грей / Greys Anatomy (2015) WEB-DLRip (сезон 12, серии 1-4 из 24) BaibaKo (обновляемая) скачать через торрент бесплатно
  • Анатомия страсти / Анатомия Грей / Greys Anatomy (2015) WEB-DL [H.264 / 720p-LQ] (сезон 12, серии 1-4 из 24) BaibaKo (обновляемая) скачать через торрент бесплатно
  • Анатомия страсти / Анатомия Грей / Greys Anatomy (2016) WEB-DL [H.264 / 720p-LQ] (сезон 13, серии 1-8 из 18) Fox Life (обновляемая)
  • Анатомия страсти / Анатомия Грей / Greys Anatomy (2015) WEB-DL [H.264 / 720p-LQ] (сезон 12, серии 1-24 из 24) Fox Life


    • Комментарии (0):

      Информация

      Информация

        Посетители, находящиеся в группе Гости, не могут оставлять комментарии в данной новости.

        ↓ Меню




        ↓ Опрос

        Вы добавили сайт в закладки?
        Да
        Нет


        Top 10 за месяц (Фильмы)