.
Авторизация | Регистрация
Хочешь лучшие торренты? Добавь свой email!
Добавить

Торрент скачать бесплатно

» » Робот по имени Чаппи / Chappie (2015) CamRip скачать через торрент бесплатно




    Робот по имени Чаппи / Chappie (2015) CamRip скачать через торрент бесплатно

    Опубликовал: Админ | Дата: 11-03-2015, 04:00 | Просмотров: 224

    Производство: Мексика, США, Columbia Pictures
    Жанр: Фантастика, Боевик, Триллер
    Режиссер: Нил Бломкамп
    Продюсер: Саймон Кинберг, Джеймс Битонти, Виктория Буркхарт

    Актеры
    Шарлто Копли, Дев Патель, Ниндзя, Йоланди Фиссер, Хосе Пабло Кантилльо, Хью Джекман, Сигурни Уивер, Брэндон Оре, Джонни Селема, Андерсон Купер

    Описание фильма

    Чаппи — вундеркинд. Как и любой другой ребенок, он попадает под влияние своего окружения, и только его сердце и душа помогут ему найти свой путь. Но есть одна вещь, которая делает Чаппи непохожим на всех остальных: он — первый робот, способный чувствовать и думать.

    Дата мировой премьеры: 4 марта 2015
    Дата российской премьеры: 5 марта 2015, WDSSPR
    Рейтинг MPAA: R
    Возраст: 16+
    Продолжительность: 01: 55: 54
    Качество видео: CamRip
    Перевод: Дублированный
    Субтитры: Отсутствуют
    Видеокодек: XviD
    Битрейт видео: 1662 kb/s
    Размер кадра: 720x400
    Аудиокодек: AC3 2.0
    Битрейт аудио: 128 Kb/s
    Сэмпл: Скачать
    Общее
    Полное имя : D: МужаРобот.по.имени.Чаппи.2015.CamRip.NNM-CLUB.avi
    Формат : AVI
    Формат/Информация : Audio Video Interleave
    Размер файла : 1, 46 Гбайт
    Продолжительность : 1 ч. 55 м.
    Общий поток : 1799 Кбит/сек
    Программа кодирования : VirtualDubMod 1.5.10.2 (build 2540/release)
    Библиотека кодирования : VirtualDubMod build 2540/release
    Видео
    Идентификатор : 0
    Формат : MPEG-4 Visual
    Профиль формата : Advanced Simple@L5
    Параметр BVOP формата : 2
    Параметр QPel формата : Нет
    Параметр GMC формата : Без точки перехода
    Параметр матрицы формата : Default (MPEG)
    Идентификатор кодека : XVID
    Идентификатор кодека/Подсказка : XviD
    Продолжительность : 1 ч. 55 м.
    Битрейт : 1662 Кбит/сек
    Ширина : 720 пикселей
    Высота : 400 пикселей
    Соотношение сторон : 16: 9
    Частота кадров : 23, 976 кадра/сек
    Цветовое пространство : YUV
    Субдискретизация насыщенности : 4: 2: 0
    Битовая глубина : 8 бит
    Тип развёртки : Прогрессивная
    Метод сжатия : С потерями
    Бит/(Пиксели*Кадры) : 0.241
    Размер потока : 1, 35 Гбайт (92%)
    Библиотека кодирования : XviD 1.2.1 (UTC 2008-12-04)
    Аудио
    Идентификатор : 1
    Формат : AC-3
    Формат/Информация : Audio Coding 3
    Расширение режима : CM (complete main)
    Параметр Endianness формата : Big
    Идентификатор кодека : 2000
    Продолжительность : 1 ч. 55 м.
    Вид битрейта : Постоянный
    Битрейт : 128 Кбит/сек
    Каналы : 2 канала
    Расположение каналов : Front: L R
    Частота : 48, 0 КГц
    Битовая глубина : 16 бит
    Метод сжатия : С потерями
    Размер потока : 106 Мбайт (7%)
    Выравнивание : Разделение по промежуткам
    Продолжительность промежутка : 42 мс. (1, 00 видеокадр)
    Время предзагрузки промежутка : 500 мс.

    Скриншоты для ознакомления



    загрузка...
    Рейтинг →
     (голосов: 1, оценка 5/5, голосовать можно 1 раз )

    Другие торренты по теме:

  • Робот по имени Чаппи / Chappie (2015) WEBRip [1080p] [Трейлер]
  • Робот по имени Чаппи / Chappie (2015) CamRip скачать через торрент бесплатно
  • Hans Zimmer - Робот по имени Чаппи / Chappie (Original Motion Picture Soundtrack) (2015) [MP3|320 кб / с]<Soundtrack> скачать через торрент бесплатно
  • Hans Zimmer - Робот по имени Чаппи / Chappie (Original Motion Picture Soundtrack) (2015) [FLAC|WEB-DL|Lossless]<Soundtrack> скачать через торрент бесплатно
  • Робот по имени Чаппи / Chappie (2015) TS скачать через торрент бесплатно
  • Робот по имени Чаппи / Chappie (2015) WEB-DL [H.264 / 1080p-LQ] скачать через торрент бесплатно
  • Робот по имени Чаппи / Chappie (2015) WEB-DL [H.264 / 720p-LQ] скачать через торрент бесплатно
  • Робот по имени Чаппи / Chappie (2015) WEB-DLRip скачать через торрент бесплатно


    • Комментарии (0):

      Информация

      Информация

        Посетители, находящиеся в группе Гости, не могут оставлять комментарии в данной новости.

        ↓ Меню




        ↓ Опрос

        Вы добавили сайт в закладки?
        Да
        Нет


        Top 10 за месяц (Фильмы)