.
Авторизация | Регистрация
Хочешь лучшие торренты? Добавь свой email!
Добавить

Торрент скачать бесплатно

» » Полдарк / Poldark (2015) HDTVRip (сезон 1, серии 1 из 8) BaibaKo (обновляемая) скачать через торрент бесплатно




    Полдарк / Poldark (2015) HDTVRip (сезон 1, серии 1 из 8) BaibaKo (обновляемая) скачать через торрент бесплатно

    Опубликовал: Админ | Дата: 10-03-2015, 04:00 | Просмотров: 691

    Производство: Великобритания
    Жанр: драма
    Перевод: Многоголосый закадровый, профессиональный -BaibaKo

    Автор перевода: Янина Галицкая
    Озвучка: Светлана Доманова, Лира Грим, Сергей Корчак и Акмал Гурезов
    Монтаж: Павел Дежин
    Сэмпл
    Дата мировой премьеры: 8 марта 2015
    Режиссер: Эдвард Базалгетт, Уильям МакГрегор

    Актеры
    Эйдан Тёрнер, Элеанор Томлинсон, Хейда Рид, Кайл Соллер, Руби Бенталл, Бети Эдни, Джек Фартинг, Фил Дэвис и Уоррен Кларк и др.

    Описание фильма

    Росс Полдарк возвращается домой с войны, надеясь на спокойную и счастливую жизнь в кругу семьи, и обнаруживает, что отец умер, домом управляют слуги-пьяницы, а невеста Элизабет, уверенная, что он погиб, обручилась с его кузеном.
    Продолжительность: ~00: 59: 00 серия
    Качество видео: HDTVRip
    Видеокодек: XviD
    Формат: AVI
    Битрейт видео: ~1500 kb/s
    Размер кадра: 720х400 (16: 9)
    Аудио Rus: (MPEG Layer 3, 48, 0 kHz, 2 ch, 192 kb/s) - многоголосый закадровый
    Аудио Eng: (MPEG Layer 3, 48, 0 kHz, 2 ch, 192 kb/s) - оригинал
    Общее
    Полное имя : D: Полдарк (сезон любимого сериала 1) Poldark (2015) HDTVRip - BaibaKoPoldark.s01e01.HDTVRip.XviD.Rus.Eng.BaibaKo.tv.avi
    Формат : AVI
    Формат/Информация : Audio Video Interleave
    Размер файла : 806 Мбайт
    Продолжительность : 59 м.
    Общий поток : 1908 Кбит/сек
    Программа кодирования : VirtualDubMod 1.5.10.2 (build 2540/release)
    Библиотека кодирования : VirtualDubMod build 2540/release
    Видео
    Идентификатор : 0
    Формат : MPEG-4 Visual
    Профиль формата : Advanced Simple@L5
    Параметр BVOP формата : 2
    Параметр QPel формата : Нет
    Параметр GMC формата : Без точки перехода
    Параметр матрицы формата : Default (H.263)
    Идентификатор кодека : XVID
    Идентификатор кодека/Подсказка : XviD
    Продолжительность : 59 м.
    Битрейт : 1509 Кбит/сек
    Ширина : 720 пикселей
    Высота : 400 пикселей
    Соотношение сторон : 16: 9
    Частота кадров : 25, 000 кадров/сек
    Цветовое пространство : YUV
    Субдискретизация насыщенности : 4: 2: 0
    Битовая глубина : 8 бит
    Тип развёртки : Прогрессивная
    Метод сжатия : С потерями
    Бит/(Пиксели*Кадры) : 0.210
    Размер потока : 637 Мбайт (79%)
    Библиотека кодирования : XviD 1.2.1 (UTC 2008-12-04)
    Аудио #1
    Идентификатор : 1
    Формат : MPEG Audio
    Версия формата : Version 1
    Профиль формата : Layer 3
    Режим : Joint stereo
    Идентификатор кодека : 55
    Идентификатор кодека/Подсказка : MP3
    Продолжительность : 59 м.
    Вид битрейта : Постоянный
    Битрейт : 192 Кбит/сек
    Каналы : 2 канала
    Частота : 48, 0 КГц
    Метод сжатия : С потерями
    Размер потока : 81, 1 Мбайт (10%)
    Выравнивание : Соединение по промежуткам
    Продолжительность промежутка : 40 мс. (1, 00 видеокадр)
    Время предзагрузки промежутка : 504 мс.
    Аудио #2
    Идентификатор : 2
    Формат : MPEG Audio
    Версия формата : Version 1
    Профиль формата : Layer 3
    Режим : Joint stereo
    Расширение режима : MS Stereo
    Идентификатор кодека : 55
    Идентификатор кодека/Подсказка : MP3
    Продолжительность : 59 м.
    Вид битрейта : Постоянный
    Битрейт : 192 Кбит/сек
    Каналы : 2 канала
    Частота : 48, 0 КГц
    Метод сжатия : С потерями
    Размер потока : 81, 1 Мбайт (10%)
    Выравнивание : Соединение по промежуткам
    Продолжительность промежутка : 40 мс. (1, 00 видеокадр)
    Время предзагрузки промежутка : 504 мс.
    Библиотека кодирования : LAME3.98.4


    Скриншоты для ознакомления




    Полдарк/Poldark (2015) HDTVRip (сезон 1, серии 1 из 8) BaibaKo (обновляемая)
    загрузка...
    Рейтинг →
     (голосов: 1, оценка 4/5, голосовать можно 1 раз )

    Другие торренты по теме:

  • Полдарк / Poldark (2015) HDTV [H.264 / 720p-LQ] (Сезон 1, серия 1 из 8) (BaibaKo) (обновляемая) скачать через торрент бесплатно
  • Полдарк / Poldark (2016) WEB-DLRip (сезон 2, серии 1-2 из 8) BaibaKo (обновляемая)
  • Полдарк / Poldark (2016) WEB-DL / BDRip [H.264 / 720p-LQ] (сезон 2, серии 1-10 из 10) BaibaKo


    • Комментарии (0):

      Информация

      Информация

        Посетители, находящиеся в группе Гости, не могут оставлять комментарии в данной новости.

        ↓ Меню




        ↓ Опрос

        Вы добавили сайт в закладки?
        Да
        Нет


        Top 10 за месяц (Фильмы)