.
Авторизация | Регистрация
Хочешь лучшие торренты? Добавь свой email!
Добавить

Торрент скачать бесплатно

» » Последователи / The Following (2015) WEB-DLRip (сезон 3, серии 1 из 15) LostFilm (обновляемая) скачать через торрент бесплатно




    Последователи / The Following (2015) WEB-DLRip (сезон 3, серии 1 из 15) LostFilm (обновляемая) скачать через торрент бесплатно

    Опубликовал: Админ | Дата: 5-03-2015, 04:00 | Просмотров: 152

    Производство: США
    Жанр: триллер, драма, криминал, детектив
    Перевод: Многоголосый закадровый, профессиональный -LostFilm

    Сэмпл
    Режиссер: Маркос Сига, Джошуа Батлер, Лиз Фридлендер

    Актеры
    Кевин Бейкон, Джеймс Пьюрфой, Шон Эшмор, Кайл Кэтлетт, Натали Зиа, Энни Пэррис, Нико Торторелла и др.

    Описание фильма

    Главный антигерой - Джо Кэрол, бывший профессор колледжа, который преподавал работы Эдгара По и параллельно убивал молодых женщин во славу романтизма, пока не был пойман. Богатый выбор, сказал кто то из толпы, к чему не понятно. С того момента он провел множество часов за компьютером в тюремной библиотеке, создавая социальную сеть из убийц-подражателей, которые исполняют любую его команду. Сериал начинается с того момента, когда Кэрол спасается от смертной казни с помощью своих последователей, и ФБР, в свою очередь, приглашает Райана Харди, который схватил Джо в первый раз, для консультирования в деле его поимки.
    Продолжительность: ~00: 44: 00 серия
    Качество видео: WEB-DLRip
    Видеокодек: Xvid
    Формат: AVI
    Битрейт видео: ~1360 kb/s
    Размер кадра: 720х400 (16: 9)
    Аудио Rus: (MPEG Layer 3, 48, 0 kHz, 2 ch, 192 kb/s) - многоголосый закадровый
    Общее
    Полное имя : D: Последователи (сезон любимого сериала 3) The Following (2015) WEB-DLRip - LostFilmThe.Following.S03E01.rus.LostFilm.TV.avi
    Формат : AVI
    Формат/Информация : Audio Video Interleave
    Размер файла : 494 Мбайт
    Продолжительность : 44 м.
    Режим общего битрейта : Переменный
    Общий поток : 1566 Кбит/сек
    Программа кодирования : Nandub v1.0rc2
    Библиотека кодирования : Nandub build 1853/release
    Видео
    Идентификатор : 0
    Формат : MPEG-4 Visual
    Профиль формата : Advanced Simple@L5
    Параметр BVOP формата : Нет
    Параметр QPel формата : Нет
    Параметр GMC формата : Без точки перехода
    Параметр матрицы формата : Default (H.263)
    Идентификатор кодека : XVID
    Идентификатор кодека/Подсказка : XviD
    Продолжительность : 44 м.
    Битрейт : 1366 Кбит/сек
    Ширина : 720 пикселей
    Высота : 400 пикселей
    Соотношение сторон : 16: 9
    Частота кадров : 23, 976 кадра/сек
    Цветовое пространство : YUV
    Субдискретизация насыщенности : 4: 2: 0
    Битовая глубина : 8 бит
    Тип развёртки : Прогрессивная
    Метод сжатия : С потерями
    Бит/(Пиксели*Кадры) : 0.198
    Размер потока : 431 Мбайт (87%)
    Библиотека кодирования : XviD 1.2.1 (UTC 2008-12-04)
    Аудио
    Идентификатор : 1
    Формат : MPEG Audio
    Версия формата : Version 1
    Профиль формата : Layer 3
    Режим : Joint stereo
    Расширение режима : MS Stereo
    Идентификатор кодека : 55
    Идентификатор кодека/Подсказка : MP3
    Продолжительность : 44 м.
    Вид битрейта : Переменный
    Битрейт : 192 Кбит/сек
    Каналы : 2 канала
    Частота : 48, 0 КГц
    Метод сжатия : С потерями
    Размер потока : 59, 2 Мбайт (12%)
    Выравнивание : Соединение по промежуткам
    Продолжительность промежутка : 24 мс. (0, 58 видеокадр)
    Время предзагрузки промежутка : 470 мс.
    Библиотека кодирования : LAME3.97b
    Настройки программы : -m j -V 4 -q 3 -lowpass 18.6 --abr 192


    Скриншоты для ознакомления




    Последователи/The Following (2015) WEB-DLRip (сезон 3, серии 1 из 15) LostFilm (обновляемая)
    загрузка...
    Рейтинг →
     (голосов: 1, оценка 5/5, голосовать можно 1 раз )

    Другие торренты по теме:

  • Последователи (The Following) / (Сезон 1-2, серии 1-30 из 30) LostFilm (2013-2014) [MP4 | 1280x720] <WEB-DLRip H.264>
  • Последователи / The Following (2015) WEB-DL [H.264 / 720p-LQ] (Сезон 3, серии 1-2 из 15) (LostFilm) (обновляемая) скачать через торрент бесплатно
  • Константин Нормаер | Последователи глубины (2016) [FB2]


    • Комментарии (0):

      Информация

      Информация

        Посетители, находящиеся в группе Гости, не могут оставлять комментарии в данной новости.

        ↓ Меню




        ↓ Опрос

        Вы добавили сайт в закладки?
        Да
        Нет


        Top 10 за месяц (Фильмы)