.
Авторизация | Регистрация
Хочешь лучшие торренты? Добавь свой email!
Добавить

Торрент скачать бесплатно

» » Последняя электричка (2014) IPTVRip (серии 1-2 из 8) (обновляемая) скачать через торрент бесплатно




    Последняя электричка (2014) IPTVRip (серии 1-2 из 8) (обновляемая) скачать через торрент бесплатно

    Опубликовал: Админ | Дата: 4-03-2015, 04:00 | Просмотров: 109

    Производство: Россия
    Жанр: мелодрама, музыкальный
    Режиссер: Анна Гресь

    Актеры
    Анастасия Панина, Кирилл Жандаров, Алла Подчуфарова, Наталья Варнакова, Артур Ваха, Павел Поймалов, Петр Томашевский, Лариса Руснак, Станислав Боклан, Татьяна Печенкина и др.

    Описание фильма

    Выпускница Аня живет в приемной семье и мечтает разузнать что-нибудь о своих настоящих родителях. Поиски приводят ее в театр, где Аня проходит прослушивание и получает главную роль в мюзикле. Ее внезапный взлет у многих вызывает зависть. О таком странном сюжете не догадывалась даже Бритни Спирс. Но, пройдя через череду взлетов и падений и раскрыв немало шокирующих семейных тайн, Аня докажет: она достойна и удачи, и признания, и счастливой любви.

    Продолжительность: ~ 00: 48: 00 серия
    Качество видео: IPTVRip
    СЭМПЛ
    Видеокодек: Xvid
    Битрейт видео: ~1499 kbps
    Размер кадра: 720x400
    Аудиокодек: MP3
    Битрейт аудио: 2 ch, 128 Кбит/с
    Субтитры: вшитые неотключаемые (иврит)
    Код:

    General
    Complete name : Poslednjaja.jelektrichka.IPTVRipPoslednjaja.jelektrichka.01.IPTVRip.avi
    Format : AVI
    Format/Info : Audio Video Interleave
    File size : 564 MiB
    Duration : 48mn 10s
    Overall bit rate : 1 638 Kbps
    Writing application : VirtualDubMod 1.5.10.3 |www.virtualdub-fr.org|| (build 2550/release)
    Writing library : VirtualDubMod build 2550/release
    Video
    ID : 0
    Format : MPEG-4 Visual
    Format profile : Advanced Simple@L5
    Format settings, BVOP : 2
    Format settings, QPel : No
    Format settings, GMC : No warppoints
    Format settings, Matrix : Default (H.263)
    Codec ID : XVID
    Codec ID/Hint : XviD
    Duration : 48mn 10s
    Bit rate : 1 500 Kbps
    Width : 720 pixels
    Height : 400 pixels
    Display aspect ratio : 16:9
    Frame rate : 25.000 fps
    Color space : YUV
    Chroma subsampling : 4:2:0
    Bit depth : 8 bits
    Scan type : Progressive
    Compression mode : Lossy
    Bits/(Pixel*Frame) : 0.208
    Stream size : 517 MiB (92%)
    Writing library : XviD 1.2.1 (UTC 2008-12-04)
    Audio
    ID : 1
    Format : MPEG Audio
    Format version : Version 1
    Format profile : Layer 3
    Mode : Joint stereo
    Mode extension : MS Stereo
    Codec ID : 55
    Codec ID/Hint : MP3
    Duration : 48mn 10s
    Bit rate mode : Constant
    Bit rate : 128 Kbps
    Channel(s) : 2 channels
    Sampling rate : 48.0 KHz
    Compression mode : Lossy
    Stream size : 44.1 MiB (8%)
    Alignment : Aligned on interleaves
    Interleave, duration : 40 ms (1.00 video frame)
    Interleave, preload duration : 504 ms
    Writing library : LAME3.99r
    Encoding settings : -m j -V 4 -q 9 -lowpass 17 -b 128


    Скриншоты для ознакомления




    Последняя электричка (2014) IPTVRip (серии 1-2 из 8) (обновляемая)
    загрузка...
    Рейтинг →
     (голосов: 1, оценка 3/5, голосовать можно 1 раз )

    Другие торренты по теме:

  • Сергей Нагорный | Последняя электричка (2017) [MP3]


    • Комментарии (0):

      Информация

      Информация

        Посетители, находящиеся в группе Гости, не могут оставлять комментарии в данной новости.

        ↓ Меню




        ↓ Опрос

        Вы добавили сайт в закладки?
        Да
        Нет


        Top 10 за месяц (Фильмы)