.
Авторизация | Регистрация
Хочешь лучшие торренты? Добавь свой email!
Добавить

Торрент скачать бесплатно

» » Папа на вырост (2015) SATRip (серии 1-2 из 20) (обновляемая) скачать через торрент бесплатно




    Папа на вырост (2015) SATRip (серии 1-2 из 20) (обновляемая) скачать через торрент бесплатно

    Опубликовал: Админ | Дата: 3-03-2015, 04:00 | Просмотров: 86

    Производство: Россия/СТС Yellow, Black White
    Жанр: комедия
    Режиссер: Радда Новикова

    Актеры
    Ефим Петрунин, Аслан Бижоев, Артём Лощилин, Яна Гурьянова, Ольга Тумайкина, Ксения Теплова и др.

    Описание фильма

    Жизнь главного героя, 25-летнего бармена Славы, меняется в один момент, когда под дверью своей квартиры он находит корзинку с трёхмесячной девочкой и запиской. Оказывается, одна из многочисленных бывших подружек Славы стала мамой, но воспитывать дочку не собирается, и теперь у новоиспечённого папаши два варианта: отдать ребёнка в детдом и продолжить беззаботную жизнь или взяться за воспитание младенца. О таком странном сюжете не догадывалась даже Юлия Володимировна. Несмотря на уговоры друзей, Слава решает оставить дочь, ведь для него это отличный шанс доказать окружающих и самому себе, что он взрослый самостоятельный человек. Правда, о последствиях такого решения он пока даже не подозревает…

    Дата российской премьеры: 2 марта 2015
    Качество видео: SATRip
    Продолжительность: ~00: 25: 00 серия
    Видеокодек: XviD
    Формат: AVI
    Битрейт видео: ~1800 kbps
    Размер кадра: 720x368
    Аудиокодек: МР3, 2 ch
    Битрейт аудио: 128.00 kbps
    Общее
    Полное имя : D: папа на выростPapa.na.virost.01..avi
    Формат : AVI
    Формат/Информация : Audio Video Interleave
    Размер файла : 329 Мбайт
    Продолжительность : 23 м.
    Общий поток : 1929 Кбит/сек
    Программа кодирования : VirtualDubMod 1.5.10.3 |www.virtualdub-fr.org|| (build 2550/release)
    Библиотека кодирования : VirtualDub build 29808/release
    Видео
    Идентификатор : 0
    Формат : MPEG-4 Visual
    Профиль формата : Advanced Simple@L5
    Параметр BVOP формата : 2
    Параметр QPel формата : Нет
    Параметр GMC формата : Без точки перехода
    Параметр матрицы формата : Default (MPEG)
    Идентификатор кодека : XVID
    Идентификатор кодека/Подсказка : XviD
    Продолжительность : 23 м.
    Битрейт : 1792 Кбит/сек
    Ширина : 720 пикселей
    Высота : 368 пикселей
    Соотношение сторон : 1, 957
    Частота кадров : 25, 000 кадров/сек
    Цветовое пространство : YUV
    Субдискретизация насыщенности : 4: 2: 0
    Битовая глубина : 8 бит
    Тип развёртки : Прогрессивная
    Метод сжатия : С потерями
    Бит/(Пиксели*Кадры) : 0.270
    Размер потока : 305 Мбайт (93%)
    Библиотека кодирования : XviD 1.2.1 (UTC 2008-12-04)
    Аудио
    Идентификатор : 1
    Формат : MPEG Audio
    Версия формата : Version 1
    Профиль формата : Layer 3
    Идентификатор кодека : 55
    Идентификатор кодека/Подсказка : MP3
    Продолжительность : 23 м.
    Вид битрейта : Постоянный
    Битрейт : 128 Кбит/сек
    Каналы : 2 канала
    Частота : 48, 0 КГц
    Метод сжатия : С потерями
    Размер потока : 21, 8 Мбайт (7%)
    Выравнивание : Соединение по промежуткам
    Продолжительность промежутка : 40 мс. (1, 00 видеокадр)
    Время предзагрузки промежутка : 504 мс.
    Библиотека кодирования : LAME3.99r
    Настройки программы : -m s -V 4 -q 1 -lowpass 17 -b 128


    Скриншоты для ознакомления




    Папа на вырост (2015) SATRip (серии 1-2 из 20) (обновляемая)
    загрузка...
    Рейтинг →
     (голосов: 1, оценка 5/5, голосовать можно 1 раз )

    Другие торренты по теме:

  • Пусть говорят - Первый папа на деревне (04.02.2015) SATRip скачать через торрент бесплатно
  • Папа на вырост (2015) WEB-DLRip (серии 1-2 из 20) (обновляемая) скачать через торрент бесплатно
  • Что ты делал на войне, папа / What Did You Do in the War, Daddy (1966) HDTV [H.264 / 1080i] скачать через торрент бесплатно


    • Комментарии (0):

      Информация

      Информация

        Посетители, находящиеся в группе Гости, не могут оставлять комментарии в данной новости.

        ↓ Меню




        ↓ Опрос

        Вы добавили сайт в закладки?
        Да
        Нет


        Top 10 за месяц (Фильмы)