.
Авторизация | Регистрация
Хочешь лучшие торренты? Добавь свой email!
Добавить

Торрент скачать бесплатно

» » 8 на 45 / 8x45 - Austria Mystery (2006) SATRip (сезон 1, серии 1-8 из 8) скачать через торрент бесплатно




    8 на 45 / 8x45 - Austria Mystery (2006) SATRip (сезон 1, серии 1-8 из 8) скачать через торрент бесплатно

    Опубликовал: Админ | Дата: 3-03-2015, 04:00 | Просмотров: 123

    Производство: Австрия
    Жанр: детектив, мистика
    Перевод: Многоголосый закадровый, профессиональный
    Режиссер: Фальк Швейкхарт, Оливер Картак, Лукас Стурм, Макс Грюбер

    Актеры
    Вивиан Бартш, Андреас Луст, Арно Фриц, Гельмут Богач, Си-Си Йелинек, Алоиз Франк, Вольфганг Лоренц, Ларс Рудольф, Александр Штробель, Мартина Циннер, Марион Миттерхаммер, Андреа Нюрнбергер, Серж Фальк, Джулия Хофлер, Андреас Паттно, Татьяна Александер, Александр Шауер, Суси Штах, Питер Штраус, Беатрикс Бруншко, Елизабет Фризенбихлер, Рафаэль Шухтер, Бригитта Хобмайер, Ронья Форшер

    Описание фильма

    Путешествие в мир непознанного, неподдающегося человеческому объяснению. Сверхъестественные способности, феномены, рискованные опыты.
    Серии никак не связаны сюжетно. Единственное, что их объединяет — мистика.

    Дата мировой премьеры: 12 января 2006
    Продолжительность: ~00: 45: 00 серия
    Качество видео: SATRip
    СЭМПЛ
    Видеокодек: Xvid
    Битрейт видео: ~1101 Кбит/сек
    Размер кадра: 624x352
    Аудиокодек: MP3, 2 канала
    Битрейт аудио: 128 Кбит/сек
    Код:

    Общее
    Полное имя : D:8x458x45_1.avi
    Формат : AVI
    Формат/Информация : Audio Video Interleave
    Размер файла : 402 Мбайт
    Продолжительность : 45 м.
    Общий поток : 1239 Кбит/сек
    Программа кодирования : VirtualDubMod 1.5.10.2 (build 2540/release)
    Библиотека кодирования : VirtualDubMod build 2540/release
    Видео
    Идентификатор : 0
    Формат : MPEG-4 Visual
    Профиль формата : Advanced Simple@L5
    Параметр BVOP формата : 2
    Параметр QPel формата : Нет
    Параметр GMC формата : Без точки перехода
    Параметр матрицы формата : Default (H.263)
    Режим смешивания : Сжатый битовый поток
    Идентификатор кодека : XVID
    Идентификатор кодека/Подсказка : XviD
    Продолжительность : 45 м.
    Битрейт : 1101 Кбит/сек
    Ширина : 624 пикселя
    Высота : 352 пикселя
    Соотношение сторон : 1, 660
    Соотношение сторон в оригинале : 16:9
    Частота кадров : 25, 000 кадров/сек
    Цветовое пространство : YUV
    Субдискретизация насыщенности : 4:2:0
    Битовая глубина : 8 бит
    Тип развёртки : Прогрессивная
    Метод сжатия : С потерями
    Бит/(Пиксели*Кадры) : 0.201
    Размер потока : 357 Мбайт (89%)
    Библиотека кодирования : XviD 1.1.2 (UTC 2006-11-01)
    Аудио
    Идентификатор : 1
    Формат : MPEG Audio
    Версия формата : Version 1
    Профиль формата : Layer 3
    Режим : Joint stereo
    Расширение режима : MS Stereo
    Идентификатор кодека : 55
    Идентификатор кодека/Подсказка : MP3
    Продолжительность : 45 м.
    Вид битрейта : Постоянный
    Битрейт : 128 Кбит/сек
    Каналы : 2 канала
    Частота : 48, 0 КГц
    Метод сжатия : С потерями
    Размер потока : 41, 5 Мбайт (10%)
    Выравнивание : Разделение по промежуткам
    Продолжительность промежутка : 40 мс. (1, 00 видеокадр)
    Время предзагрузки промежутка : 500 мс.


    Скриншоты для ознакомления




    8 на 45/8x45 - Austria Mystery (2006) SATRip (сезон 1, серии 1-8 из 8)
    загрузка...
    Рейтинг →
     (голосов: 1, оценка 5/5, голосовать можно 1 раз )

    Другие торренты по теме:

  • Redemption Cemetery 8: At Deaths Door / Кладбище искупления 8: На пороге смерти (2016) [Ru] (1.0) Unofficial [Collectors Edition / Коллекционное издание]
  • Redemption Cemetery 8: At Deaths Door / Кладбище искупления 8: На пороге смерти (2016) [Ru] (1.0) Unofficial [Collectors Edition / Коллекционное издание]
  • Журнал | Всему свету по совету. Спецвыпуск №8. На даче (июль 2017) [PDF]
  • Fear for Sale 8: The House On Black River / Страх на продажу 8: Дом на Черной речке (2016) [Ru] (1.0) Unofficial [Collectors Edition / Коллекционное издание]
  • Animal Planet. Дома на деревьях / Treehouse Masters (2013) SATRip [Сезон 1, Серии 1-8 из 8] скачать через торрент бесплатно
  • Discovery. Игра на жизнь / Survive That! (2014) HDTVRip [Сезон 2, Серии 1-8 из 8] скачать через торрент бесплатно
  • Главный фронт на Востоке 1931-1945 / The Oriental Battlefield (2015) SATRip (8 серий из 8) скачать через торрент бесплатно
  • NG: Вторжение на Землю / Invasion Earth (2014) HDTVRip [H.264 / 720p] (1-8 серия из 8)


    • Комментарии (0):

      Информация

      Информация

        Посетители, находящиеся в группе Гости, не могут оставлять комментарии в данной новости.

        ↓ Меню




        ↓ Опрос

        Вы добавили сайт в закладки?
        Да
        Нет


        Top 10 за месяц (Фильмы)