.
Авторизация | Регистрация
Хочешь лучшие торренты? Добавь свой email!
Добавить

Торрент скачать бесплатно

» » Раш / Натиск / Доктор Кайф / Rush (US) (2014) WEB-DLRip (Сезон 1, серии 1-3 из 10) (BaibaKo) (обновляемая) скачать через торрент бесплатно




    Раш / Натиск / Доктор Кайф / Rush (US) (2014) WEB-DLRip (Сезон 1, серии 1-3 из 10) (BaibaKo) (обновляемая) скачать через торрент бесплатно

    Опубликовал: Админ | Дата: 2-03-2015, 04:00 | Просмотров: 173

    Производство: Канада
    Жанр: Драма, криминал
    Перевод: Профессиональный многоголосый закадровый -BaibaKo
    Режиссер: Билл Джонсон, Джонатан Левин, Деран Сарафян

    Актеры
    Том Эллис, Сара Хабель, Одетт Эннэйбл, Рик Гонсалес, Синди Басби, Энджелл Конвелл, Брайан Маркинсон, Эмили Брюн, Джино Энтони Песи, Роландо Молина и др.

    Описание

    Доктор Уильям Раш (Том Эллис) принимает слишком много наркотиков, чтобы работать в больнице. Он нюхает кокаин, спит с кем придется и думает только о себе – даже в тех редчайших случаях, когда делает что-то хорошее. Поэтому у него особый врачебный бизнес. Раш за наличные обслуживает тех состоятельных жителей Лос-Анджелеса, кто не любит клиники и полицию. Избили до крови девушку? Схлопотали пулю в перестрелке? Раш приедет и поможет. До поры до времени его не заботило то, что большинство его пациентов зарабатывают на жизнь не совсем честным путем и хранят слишком много секретов. Но вскоре все изменилось. Раш оказался втянутым в неприятности, и теперь ему предстоит пересмотреть свои прежние идеалы и вертится как белка в колесе изменить свой образ жизни.
    СЭМПЛ
    Продолжительность: ~ 00: 43: 00 серия
    Качество видео: WEB-DLRip
    Формат: AVI
    Видео: 720x400 (16: 9), 23.976 fps, XviD ~1506 kbps, ~ 0.218 bit/pixel
    Аудио Rus: MPEG Layer 3, 192 kbps, 2 ch, 48 kHz
    Аудио Eng: MPEG Layer 3, 192 kbps, 2 ch, 48 kHz
    Релиз-группа: BaibaKo
    Озвучка: Светлана Доманова, Юлия Котурбаш, Алексей Кузнецов и Дмитрий Глебов
    Автор перевода: Юлия Морнева
    Общее
    Rush - Доктор Кайф (Раш). Сезон 1. BaibaKoRush.US.s01e01.WEB-DLRip.XviD.Rus-Eng.BaibaKo.tv.avi
    Формат : AVI
    Формат/Информация : Audio Video Interleave
    Размер файла : 588 Мбайт
    Продолжительность : 43 м.
    Общий поток : 1904 Кбит/сек
    Программа кодирования : VirtualDubMod 1.5.10.2 (build 2540/release)
    Библиотека кодирования : VirtualDubMod build 2540/release
    Видео
    Идентификатор : 0
    Формат : MPEG-4 Visual
    Профиль формата : Advanced Simple@L5
    Параметр BVOP формата : 2
    Параметр QPel формата : Нет
    Параметр GMC формата : Без точки перехода
    Параметр матрицы формата : Default (H.263)
    Идентификатор кодека : XVID
    Идентификатор кодека/Подсказка : XviD
    Продолжительность : 43 м.
    Битрейт : 1506 Кбит/сек
    Ширина : 720 пикселей
    Высота : 400 пикселей
    Соотношение сторон : 16: 9
    Частота кадров : 23, 976 кадра/сек
    Цветовое пространство : YUV
    Субдискретизация насыщенности : 4: 2: 0
    Битовая глубина : 8 бит
    Тип развёртки : Прогрессивная
    Метод сжатия : С потерями
    Бит/(Пиксели*Кадры) : 0.218
    Размер потока : 465 Мбайт (79%)
    Библиотека кодирования : XviD 1.2.1 (UTC 2008-12-04)
    Аудио #1
    Идентификатор : 1
    Формат : MPEG Audio
    Версия формата : Version 1
    Профиль формата : Layer 3
    Режим : Joint stereo
    Расширение режима : MS Stereo
    Идентификатор кодека : 55
    Идентификатор кодека/Подсказка : MP3
    Продолжительность : 43 м.
    Вид битрейта : Постоянный
    Битрейт : 192 Кбит/сек
    Каналы : 2 канала
    Частота : 48, 0 КГц
    Метод сжатия : С потерями
    Размер потока : 59, 3 Мбайт (10%)
    Выравнивание : Соединение по промежуткам
    Продолжительность промежутка : 42 мс. (1, 00 видеокадр)
    Время предзагрузки промежутка : 504 мс.
    Аудио #2
    Идентификатор : 2
    Формат : MPEG Audio
    Версия формата : Version 1
    Профиль формата : Layer 3
    Режим : Joint stereo
    Расширение режима : MS Stereo
    Идентификатор кодека : 55
    Идентификатор кодека/Подсказка : MP3
    Продолжительность : 43 м.
    Вид битрейта : Постоянный
    Битрейт : 192 Кбит/сек
    Каналы : 2 канала
    Частота : 48, 0 КГц
    Метод сжатия : С потерями
    Размер потока : 59, 3 Мбайт (10%)
    Выравнивание : Соединение по промежуткам
    Продолжительность промежутка : 42 мс. (1, 00 видеокадр)
    Время предзагрузки промежутка : 504 мс.


    Скриншоты для ознакомления




    Раш/Натиск/Доктор Кайф/Rush (US) (2014) WEB-DLRip (Сезон 1, серии 1-3 из 10) (BaibaKo) (обновляемая)
    загрузка...
    Рейтинг →
     (голосов: 1, оценка 5/5, голосовать можно 1 раз )

    Другие торренты по теме:

  • Раш / Натиск / Доктор Кайф / Rush (US) (2014) WEB-DL [H.264 / 720p-LQ] (Сезон 1, Серии 1-9 из 10) IDEAFILM (обновляемая) скачать через торрент бесплатно
  • Нитро Раш / Nitro Rush (2016) BDRip [H.264 / 1080p-LQ]


    • Комментарии (0):

      Информация

      Информация

        Посетители, находящиеся в группе Гости, не могут оставлять комментарии в данной новости.

        ↓ Меню




        ↓ Опрос

        Вы добавили сайт в закладки?
        Да
        Нет


        Top 10 за месяц (Фильмы)