.
Авторизация | Регистрация
Хочешь лучшие торренты? Добавь свой email!
Добавить

Торрент скачать бесплатно

» » Выстрел (2015) WEB-DLRip (серии 1-6 из 12) (обновляемая) скачать через торрент бесплатно




    Выстрел (2015) WEB-DLRip (серии 1-6 из 12) (обновляемая) скачать через торрент бесплатно

    Опубликовал: Админ | Дата: 1-03-2015, 04:00 | Просмотров: 98

    Производство: студия Русский проект, Россия
    Жанр: драма, спорт
    Режиссер: Сергей Коротаев

    Актеры
    Юрий Борисов, Данила Шевченко, Сергей Соцердотский, Гела Месхи, Мария Белоненко, Владимир Меньшов, Алексей Ошурков, Сергей Угрюмов, Вильма Кутавичюте, Роман Синицын, Лидия Милюзина, Александра Бортич, Александр Андриенко

    Описание фильма

    История молодого спортсмена, который упорным трудом пробивает себе дорогу из российской глубинки в состав сборной России по биатлону, и становится одним из ее лидеров на Олимпийских играх в Сочи-2014.

    Дата российской премьеры: 09.02.2015
    Продолжительность: ~ 00: 50: 00 серия
    Качество видео: WEB-DLRip
    Видеокодек: Xvid
    Битрейт видео: ~1800 kbps
    Размер кадра: 720x400 (16: 9)
    Аудиокодек: AC3
    Битрейт аудио: 2 ch, 192 Kbps
    Код:
    Общее
    Полное имя : E:DOWNLOADSВыстрел (2015) WEB-DLRipВыстрел - 01 серия.avi
    Формат : AVI
    Формат/Информация : Audio Video Interleave
    Размер файла : 730 Мбайт
    Продолжительность : 50 м.
    Общий поток : 2011 Кбит/сек
    Программа кодирования : VirtualDubMod 1.5.10.3 |www.virtualdub-fr.org|| (build 2550/release)
    Библиотека кодирования : VirtualDubMod build 2550/release
    Видео
    Идентификатор : 0
    Формат : MPEG-4 Visual
    Профиль формата : Advanced Simple@L5
    Параметр BVOP формата : 1
    Параметр QPel формата : Нет
    Параметр GMC формата : Без точки перехода
    Параметр матрицы формата : Default (MPEG)
    Идентификатор кодека : XVID
    Идентификатор кодека/Подсказка : XviD
    Продолжительность : 50 м.
    Битрейт : 1800 Кбит/сек
    Ширина : 720 пикселей
    Высота : 400 пикселей
    Соотношение сторон : 16:9
    Частота кадров : 50, 000 кадров/сек
    Цветовое пространство : YUV
    Субдискретизация насыщенности : 4:2:0
    Битовая глубина : 8 бит
    Тип развёртки : Прогрессивная
    Метод сжатия : С потерями
    Бит/(Пиксели*Кадры) : 0.125
    Размер потока : 653 Мбайт (89%)
    Библиотека кодирования : XviD 73
    Аудио
    Идентификатор : 1
    Формат : AC-3
    Формат/Информация : Audio Coding 3
    Расширение режима : CM (complete main)
    Параметр Endianness формата : Big
    Идентификатор кодека : 2000
    Продолжительность : 50 м.
    Вид битрейта : Постоянный
    Битрейт : 192 Кбит/сек
    Каналы : 2 канала
    Расположение каналов : Front: L R
    Частота : 48, 0 КГц
    Битовая глубина : 16 бит
    Метод сжатия : С потерями
    Размер потока : 69, 6 Мбайт (10%)
    Выравнивание : Разделение по промежуткам
    Продолжительность промежутка : 20 мс. (1, 00 видеокадр)
    Время предзагрузки промежутка : 500 мс.


    Скриншоты для ознакомления




    Выстрел (2015) WEB-DLRip (серии 1-6 из 12) (обновляемая)
    загрузка...
    Рейтинг →
     (голосов: 1, оценка 4/5, голосовать можно 1 раз )

    Другие торренты по теме:

  • Выстрел в пустоту / Shot Caller (2017) HDRip [H.264] [MP4|1920x800]
  • Выстрел в пустоту / Shot Caller (2017) HDRip [H.264] [MP4|1280x534]
  • Версия альтернативная: Первый выстрел Первой мировой (2014) HDTVRip [H.264 / 720p] скачать через торрент бесплатно
  • Один выстрел / One Shot (2014) DVDRip [VO]
  • Секретные материалы 15. Выстрел в Смольном (2014) SATRip скачать через торрент бесплатно
  • Выстрел в спину (1980) DVBRip
  • Выстрел в спину (1980) SATRip [H.264]
  • Выстрел (2015) SATRip (серия 1-2 из 12) (обновляемая)


    • Комментарии (0):

      Информация

      Информация

        Посетители, находящиеся в группе Гости, не могут оставлять комментарии в данной новости.

        ↓ Меню




        ↓ Опрос

        Вы добавили сайт в закладки?
        Да
        Нет


        Top 10 за месяц (Фильмы)