.
Авторизация | Регистрация
Хочешь лучшие торренты? Добавь свой email!
Добавить

Торрент скачать бесплатно

» » Улица потрошителя / Ripper Street (2014) WEBRip (сезон 3, серии 1 из 8) NewStudio (обновляемая)скачать через торрент бесплатно




    Улица потрошителя / Ripper Street (2014) WEBRip (сезон 3, серии 1 из 8) NewStudio (обновляемая)скачать через торрент бесплатно

    Опубликовал: Админ | Дата: 28-02-2015, 04:00 | Просмотров: 104

    Производство: Великобритания, Ирландия
    Жанр: криминал, детектив
    Перевод: Многоголосый закадровый, профессиональный -NewStudio

    Автор перевода: Александра Цернант, Самира Гайад
    Сэмпл
    Режиссер: Энди Уилсон, Том Шенклэнд, Колм МакКарти

    Актеры
    Мэтью Макфейден, Джером Флинн, Адам Ротенберг, Дэвид Уилмот, МайАнна Бёринг, Шарлин МакКенна и др.

    Описание фильма

    .События данного сериала разворачиваются в Лондоне 1899 года, сразу после громких убийств, совершенных Джеком Потрошителем. Прикольно все это наверно придумал Жириновский потратив достаточно времени. Команда детективов расследует преступления, попутно стараясь успокоить панику среди жителей Ист-Энда.
    Продолжительность: ~01: 05: 00 серия
    Качество видео: WEBRip
    Видеокодек: XviD
    Формат: AVI
    Битрейт видео: ~1200 kb/s
    Размер кадра: 720х400 (16: 9)
    Аудио Rus: (MPEG Layer 3, 48, 0 kHz, 2 ch, 128 kb/s) - многоголосый закадровый
    Аудио Eng: (MPEG Layer 3, 48, 0 kHz, 2 ch, 128 kb/s) - оригинал
    Общее
    Полное имя : D: Улица потрошителя (сезон любимого сериала 3) Ripper Street (2014) WEBRip - NewStudioRipper.Street.s03e01.WEBRip.NewStudio.TV.avi
    Формат : AVI
    Формат/Информация : Audio Video Interleave
    Размер файла : 700 Мбайт
    Продолжительность : 1 ч. 6 м.
    Общий поток : 1471 Кбит/сек
    Программа кодирования : VirtualDubMod 1.5.10.2 (build 2540/release)
    Библиотека кодирования : VirtualDubMod build 2540/release
    Видео
    Идентификатор : 0
    Формат : MPEG-4 Visual
    Профиль формата : Advanced Simple@L5
    Параметр BVOP формата : 2
    Параметр QPel формата : Нет
    Параметр GMC формата : Без точки перехода
    Параметр матрицы формата : Default (MPEG)
    Идентификатор кодека : XVID
    Идентификатор кодека/Подсказка : XviD
    Продолжительность : 1 ч. 6 м.
    Битрейт : 1200 Кбит/сек
    Ширина : 720 пикселей
    Высота : 400 пикселей
    Соотношение сторон : 16: 9
    Частота кадров : 25, 000 кадров/сек
    Цветовое пространство : YUV
    Субдискретизация насыщенности : 4: 2: 0
    Битовая глубина : 8 бит
    Тип развёртки : Прогрессивная
    Метод сжатия : С потерями
    Бит/(Пиксели*Кадры) : 0.167
    Размер потока : 571 Мбайт (82%)
    Библиотека кодирования : XviD 64
    Аудио #1
    Идентификатор : 1
    Формат : MPEG Audio
    Версия формата : Version 1
    Профиль формата : Layer 3
    Режим : Joint stereo
    Расширение режима : MS Stereo
    Идентификатор кодека : 55
    Идентификатор кодека/Подсказка : MP3
    Продолжительность : 1 ч. 6 м.
    Вид битрейта : Постоянный
    Битрейт : 128 Кбит/сек
    Каналы : 2 канала
    Частота : 48, 0 КГц
    Метод сжатия : С потерями
    Размер потока : 60, 9 Мбайт (9%)
    Выравнивание : Соединение по промежуткам
    Продолжительность промежутка : 40 мс. (1, 00 видеокадр)
    Время предзагрузки промежутка : 504 мс.
    Аудио #2
    Идентификатор : 2
    Формат : MPEG Audio
    Версия формата : Version 1
    Профиль формата : Layer 3
    Режим : Joint stereo
    Расширение режима : MS Stereo
    Идентификатор кодека : 55
    Идентификатор кодека/Подсказка : MP3
    Продолжительность : 1 ч. 6 м.
    Вид битрейта : Постоянный
    Битрейт : 128 Кбит/сек
    Каналы : 2 канала
    Частота : 48, 0 КГц
    Метод сжатия : С потерями
    Размер потока : 60, 9 Мбайт (9%)
    Выравнивание : Соединение по промежуткам
    Продолжительность промежутка : 40 мс. (1, 00 видеокадр)
    Время предзагрузки промежутка : 504 мс.
    Библиотека кодирования : LAME3.99r
    Настройки программы : -m j -V 4 -q 2 -lowpass 17 -b 128


    Скриншоты для ознакомления




    Улица потрошителя/Ripper Street (2014) WEBRip (сезон 3, серии 1 из 8) NewStudio (обновляемая)
    загрузка...
    Рейтинг →
     (голосов: 1, оценка 3/5, голосовать можно 1 раз )

    Другие торренты по теме:

  • Улица потрошителя / Ripper Street (2016) WEBRip (сезон 4, серии 1-2 из 8) NewStudio (обновляемая)
  • Улица потрошителя / Ripper Street (2016) WEBRip WEBRip [H.264 / 720p-LQ] (сезон 4, серии 1-3 из 8) NewStudio (обновляемая)
  • Улица потрошителя / Ripper Street (2016) WEB-DLRip (сезон 5, серии 1 из 6) NewStudio (обновляемая)
  • Улица потрошителя / Ripper Street (2016) WEBRip [H.264 / 720p] (сезон 5, серии 1-2 из 6) NewStudio (обновляемая)


    • Комментарии (0):

      Информация

      Информация

        Посетители, находящиеся в группе Гости, не могут оставлять комментарии в данной новости.

        ↓ Меню




        ↓ Опрос

        Вы добавили сайт в закладки?
        Да
        Нет


        Top 10 за месяц (Фильмы)