.
Авторизация | Регистрация
Хочешь лучшие торренты? Добавь свой email!
Добавить

Торрент скачать бесплатно

» » Тревожные ночи в Самаре (1969) TVRip (серии 1-3 из 3)скачать через торрент бесплатно




    Тревожные ночи в Самаре (1969) TVRip (серии 1-3 из 3)скачать через торрент бесплатно

    Опубликовал: Админ | Дата: 28-02-2015, 04:00 | Просмотров: 193

    Производство: СССР, Куйбышевская студия телевидения и радио
    Жанр: драма
    Релиз от: ФЕНИКС
    Режиссер: Владилен Недолужко

    Актеры
    Сергей Яковлев, Валерий Караваев, Владимир Емельянов, Светлана Боголюбова, Ольгерд Тарасов, Николай Клюев, Александр Демич, Сергей Пономарев, Иван Морозов, Ванда Оттович-Воловская, Николай Кузьмин, Николай Михеев, Николай Засухин, Геннадий Бутров, Всеволод Грауэрт, Евгений Григорьев, Николай Кружков, Владилен Недолужко, Юлия Никифорова, Александр Сажин, Всеволод Турчин

    Описание фильма

    В основу фильма положены подлинные события, происходившие в Самаре - контрреволюционный заговор 1921 года.
    Самарское ГубЧК с блеском разоблачает контрреволюционный бандитский заговор против Советской власти. Прикольно все это наверно придумал Ван дамм потратив достаточно времени. Главные герои - вполне реальные люди. Председатель ЧК Левин (Владимир Емельянов) в жизни носил фамилию Бирн, в 30-е годы был репрессирован. Начальник следственного отдела Лободин (Сергей Яковлев) был Беляевым, его тоже репрессировали. Александр Ягунов (Валерий Караваев) закончил строительный институт и до войны был заместителем председателя Куйбышевского горисполкома. В 1941 году ушел на фронт и в 1942 году погиб комиссаром дивизии.

    Качество видео: TVRip
    Продолжительность: 03: 01: 47 (01: 04: 43 + 00: 45: 52 + 01: 10: 33)
    Видеокодек: Xvid
    Битрейт видео: ~1578 Кбит/сек
    Размер кадра: 720x544 (4: 3)
    Аудиокодек: MP3, 2 ch
    Битрейт аудио: 128 Кбит/сек
    Код:

    Общее
    Полное имя : E:Тревожные ночи в Самаре (1969) TVRipTrevozhnye.nochi.v.Samare.1.avi
    Формат : AVI
    Формат/Информация : Audio Video Interleave
    Размер файла : 799 Мбайт
    Продолжительность : 1 ч. 5 м.
    Общий поток : 1716 Кбит/сек
    Программа кодирования : VirtualDubModRus 1.5.10.2 (build 2542/release)
    Библиотека кодирования : VirtualDub build 32842/release
    Видео
    Идентификатор : 0
    Формат : MPEG-4 Visual
    Профиль формата : Advanced Simple@L5
    Параметр BVOP формата : 2
    Параметр QPel формата : Нет
    Параметр GMC формата : Без точки перехода
    Параметр матрицы формата : Default (H.263)
    Режим смешивания : Сжатый битовый поток
    Идентификатор кодека : XVID
    Идентификатор кодека/Подсказка : XviD
    Продолжительность : 1 ч. 5 м.
    Битрейт : 1578 Кбит/сек
    Ширина : 720 пикселей
    Высота : 544 пикселя
    Соотношение сторон : 4:3
    Частота кадров : 25, 000 кадров/сек
    Цветовое пространство : YUV
    Субдискретизация насыщенности : 4:2:0
    Битовая глубина : 8 бит
    Тип развёртки : Прогрессивная
    Метод сжатия : С потерями
    Бит/(Пиксели*Кадры) : 0.161
    Размер потока : 735 Мбайт (92%)
    Библиотека кодирования : XviD 73
    Аудио
    Идентификатор : 1
    Формат : MPEG Audio
    Версия формата : Version 1
    Профиль формата : Layer 3
    Режим : Joint stereo
    Расширение режима : MS Stereo
    Идентификатор кодека : 55
    Идентификатор кодека/Подсказка : MP3
    Продолжительность : 1 ч. 5 м.
    Вид битрейта : Постоянный
    Битрейт : 128 Кбит/сек
    Каналы : 2 канала
    Частота : 48, 0 КГц
    Метод сжатия : С потерями
    Размер потока : 59, 6 Мбайт (7%)
    Выравнивание : Разделение по промежуткам
    Продолжительность промежутка : 40 мс. (1, 00 видеокадр)
    Время предзагрузки промежутка : 500 мс.
    Библиотека кодирования : LAME


    Скриншоты для ознакомления




    Тревожные ночи в Самаре (1969) TVRip (серии 1-3 из 3)
    загрузка...
    Рейтинг →
     (голосов: 1, оценка 5/5, голосовать можно 1 раз )

    Другие торренты по теме:

  • Игорь Козлов и др. | Тревожные рассветы (1986) [FB2] скачать через торрент бесплатно


    • Комментарии (0):

      Информация

      Информация

        Посетители, находящиеся в группе Гости, не могут оставлять комментарии в данной новости.

        ↓ Меню




        ↓ Опрос

        Вы добавили сайт в закладки?
        Да
        Нет


        Top 10 за месяц (Фильмы)