.
Авторизация | Регистрация
Хочешь лучшие торренты? Добавь свой email!
Добавить

Торрент скачать бесплатно

» » Бесстыдники / Бесстыжие / Shameless (US) (2017) WEB-DLRip (сезон 8, серии 1-4 из 12) AlexFilm (обновляемая) торрент скачать бесплатно




    Бесстыдники / Бесстыжие / Shameless (US) (2017) WEB-DLRip (сезон 8, серии 1-4 из 12) AlexFilm (обновляемая) торрент скачать бесплатно

    Опубликовал: Админ | Дата: 2-12-2017, 05:00 | Просмотров: 0

    Производство: США/Bonanza Productions, John Wells Productions, Warner Bros. Television
    Жанр: драма, комедия
    Режиссер: Марк Майлод, Кристофер Чулак, Энтони Хемингуэй

    Актеры
    Уильям Х. Мэйси, Эмми Россам, Итан Каткоски, Шанола Хэмптон, Джереми Аллен Уайт, Стив Хоуи, Эмма Кинни, Камерон Монахэн, Исидора Горештер, Бренден Симс и др.

    Описание

    В новом сезон любимого сериалае сериала продолжается история семьи Галлагеров. Фрэнк на какой-то момент обретает просветление и начинает ходить по дому и городу в буддистском оранжевом одеянии, чему крайне удивляются члены его семьи. Он все еще оплакивает умершую Монику. Карл учится в военной школе, периодически появляясь дома, Фиона думает над новым бизнесом, ведь она продала свою прачечную, а Лип продолжает посещать собрания анонимных алкоголиков.

    Продолжительность: ~00: 55: 00 серия
    Качество видео: WEB-DLRip
    Перевод: Многоголосый закадровый, профессиональный -AlexFilm (ненормативная лексика)
    ВНИМАНИЕ! Присутствует ненормативная лексика.
    Видео: XviD, 720x400 (16: 9), ~1517 kbps
    Аудио Rus: MPEG3, 48, 0 kHz, 2 ch, 128 kbps — многоголосый закадровый
    Аудио Eng: MPEG3, 48, 0 kHz, 2 ch, 128 kbps — оригинал

    Общее
    Полное имя : D: Бесстыжие (сезон любимого сериала 8) Shameless (2017) WEB-DLRip - AlexFilmShameless.US.S08E01.WEB-DLRip.Rus.Eng.DV.AlexFilm.avi
    Формат : AVI
    Формат/Информация : Audio Video Interleave
    Размер файла : 711 Мбайт
    Продолжительность : 55 м. 36 с.
    Общий поток : 1787 Кбит/сек
    Название фильма : Shameless.US.S08E01.WEB-DLRip.Rus.Eng.DV.AlexFilm/NNM-Club
    Программа кодирования : VirtualDubModRus 1.5.10.2 (build 2542/release)
    Библиотека кодирования : VirtualDubMod build 2542/release
    Видео
    Идентификатор : 0
    Формат : MPEG-4 Visual
    Профиль формата : Advanced Simple@L5
    Настройки формата : BVOP2
    Параметр BVOP формата : 2
    Параметр QPel формата : Нет
    Параметр GMC формата : Без точки перехода
    Параметр матрицы формата : Default (H.263)
    Идентификатор кодека : XVID
    Идентификатор кодека/Подсказка : XviD
    Продолжительность : 55 м. 36 с.
    Битрейт : 1517 Кбит/сек
    Ширина : 720 пикселей
    Высота : 400 пикселей
    Соотношение сторон : 16: 9
    Частота кадров : 23, 976 (24000/1001) кадра/сек
    Цветовое пространство : YUV
    Субдискретизация насыщенности : 4: 2: 0
    Битовая глубина : 8 бит
    Тип развёртки : Прогрессивная
    Метод сжатия : С потерями
    Бит/(Пиксели*Кадры) : 0.220
    Размер потока : 603 Мбайт (85%)
    Заголовок : Rip by DriverV/NNM-Club
    Библиотека кодирования : XviD 67
    Аудио #1
    Идентификатор : 1
    Формат : MPEG Audio
    Версия формата : Version 1
    Профиль формата : Layer 3
    Настройки формата : Joint stereo/MS Stereo
    Идентификатор кодека : 55
    Идентификатор кодека/Подсказка : MP3
    Продолжительность : 55 м. 36 с.
    Вид битрейта : Постоянный
    Битрейт : 128 Кбит/сек
    Каналы : 2 канала
    Частота : 48, 0 КГц
    Метод сжатия : С потерями
    Размер потока : 50, 9 Мбайт (7%)
    Выравнивание : Соединение по промежуткам
    Продолжительность промежутка : 42 мс. (1, 00 видеокадр)
    Время предзагрузки промежутка : 504 мс.
    Аудио #2
    Идентификатор : 2
    Формат : MPEG Audio
    Версия формата : Version 1
    Профиль формата : Layer 3
    Настройки формата : Joint stereo/MS Stereo
    Идентификатор кодека : 55
    Идентификатор кодека/Подсказка : MP3
    Продолжительность : 55 м. 36 с.
    Вид битрейта : Постоянный
    Битрейт : 128 Кбит/сек
    Каналы : 2 канала
    Частота : 48, 0 КГц
    Метод сжатия : С потерями
    Размер потока : 50, 9 Мбайт (7%)
    Выравнивание : Соединение по промежуткам
    Продолжительность промежутка : 42 мс. (1, 00 видеокадр)
    Время предзагрузки промежутка : 504 мс.


    Онлайн видео Бесстыдники



    Бесстыдники/Бесстыжие/Shameless (US) (2017) WEB-DLRip (сезон 8, серии 1-4 из 12) AlexFilm (обновляемая)
    загрузка...
    Рейтинг →
     (голосов: 1, оценка 5/5, голосовать можно 1 раз )

    Другие торренты по теме:

  • Бесстыдники / Бесстыжие / Shameless (US) (2016) HDTVRip [H.264 / 720p-LQ] (сезон 6, серии 1 из 12) AlexFilm (обновляемая) скачать через торрент бесплатно
  • Бесстыдники / Бесстыжие / Shameless (US) (2016) HDTVRip (сезон 6, серии 1 из 12) AlexFilm (обновляемая) скачать через торрент бесплатно
  • Бесстыдники / Бесстыжие / Shameless (US) (2016) HDTVRip (сезон 6, серии 1-9 из 12) (AlexFilm) (обновляемая)
  • Бесстыдники / Бесстыжие / Shameless (US) (2016) HDTVRip [H.264 / 720p-LQ] (сезон 7, серия 1 из 12) AlexFilm (обновляемая)
  • Бесстыдники / Бесстыжие / Shameless (US) (2016) HDTVRip (сезон 7, серии 1 из 12) AlexFilm (обновляемая)
  • Бесстыдники / Бесстыжие / Shameless (US) (2017) WEB-DL [H.264 / 720p-LQ] (сезон 8, серии 1 из 12) AlexFilm (обновляемая)
  • Бесстыдники / Бесстыжие / Shameless (US) (2017) WEB-DLRip (сезон 8, серии 1-2 из 12) AlexFilm (Обновляемая)


    • Комментарии (0):

      Информация

      Информация

        Посетители, находящиеся в группе Гости, не могут оставлять комментарии в данной новости.

        ↓ Меню




        ↓ Опрос

        Вы добавили сайт в закладки?
        Да
        Нет


        Top 10 за месяц (Фильмы)