.
Авторизация | Регистрация
Хочешь лучшие торренты? Добавь свой email!
Добавить

Торрент скачать бесплатно

» » Полёт Белой стрелы / Белая стрела. Возмездие (2015) WEB-DLRip [H.264 / 720p-LQ] (серии 1-12 из 12) торрент скачать бесплатно




    Полёт Белой стрелы / Белая стрела. Возмездие (2015) WEB-DLRip [H.264 / 720p-LQ] (серии 1-12 из 12) торрент скачать бесплатно

    Опубликовал: Админ | Дата: 2-12-2017, 05:00 | Просмотров: 0

    Производство: Россия/Intra Communications по заказу 5-го канала
    Жанр: боевик, детектив
    Режиссер: Александр Строев, Алексей Шикин, Михаил Баркан

    Актеры
    Сергей Маховиков, Александр Саюталин, Андрей Аверьянов, Владимир Маслаков, Егор Кутенков, Мария Жиганова, Евгений Ганелин, Ирина Обрезкова, Ирина Основина и др.

    Описание

    Валерий Блинов, Максим Сороколет, Слава Генералов и Павел Верба — настоящие мужчины, не в бронзе, но живые, чувствующие люди. Их умение чувствовать чужую боль превращает их в ангелов справедливого возмездия, в неотвратимую и безжалостную к негодяям карающую силу. Убийцы, насильники, наркоторговцы и бандиты — все получат по заслугам, или, как говорят сами герои: получат поделом. Преступники не обязательно будут ликвидированы физически, но в любом случае их жизни уже не будут безоблачными в своей безнаказанности, как прежде. Там, где зарвавшийся подлец смог откупиться от суда, или с помощью оборотней в погонах развалить очевидное дело, — Белая стрела всегда найдёт свою цель.

    Возраст: 16+ (зрителям, достигшим 16 лет)
    Релиз от: Алехаndr
    Продолжительность: ~00: 48: 00 серия
    Качество видео: WEB-DLRip
    Видео: AVC/H.264, 1280x720 (16: 9), ~2569 Kbps
    Аудио: AC3, 2 ch, 192 Kbps

    Общее
    Уникальный идентификатор : 307901303020979143165088645542202939543 (0xE7A3A249EAF0EB0DFB773A1D77C19897)
    Полное имя : D: Белая Стрела. Возмездие (2015).by.АлехаndrБелая Стрела. Возмездие 01 серия - Депутат в законе.by.Алехаndr.mkv
    Формат : Matroska
    Версия формата : Version 4/Version 2
    Размер файла : 962 Мбайт
    Продолжительность : 48 м. 16 с.
    Общий поток : 2787 Кбит/сек
    Программа кодирования : Lavf57.71.100
    Библиотека кодирования : Lavf57.71.100
    ErrorDetectionType : Per level 1
    Видео
    Идентификатор : 1
    Формат : AVC
    Формат/Информация : Advanced Video Codec
    Профиль формата : High@L4
    Настройки формата : CABAC/4 Ref Frames
    Параметр CABAC формата : Да
    Параметр RefFrames формата : 4 кадра
    Идентификатор кодека : V_MPEG4/ISO/AVC
    Продолжительность : 48 м. 15 с.
    Битрейт : 2569 Кбит/сек
    Ширина : 1280 пикселей
    Высота : 720 пикселей
    Соотношение сторон : 16: 9
    Режим частоты кадров : Постоянный
    Частота кадров : 25, 000 кадров/сек
    Цветовое пространство : YUV
    Субдискретизация насыщенности : 4: 2: 0
    Битовая глубина : 8 бит
    Тип развёртки : Прогрессивная
    Бит/(Пиксели*Кадры) : 0.112
    Размер потока : 877 Мбайт (91%)
    Библиотека кодирования : x264 core 142
    Настройки программы : cabac=1/ref=3/deblock=1: 0: 0/analyse=0x3: 0x113/me=hex/subme=7/psy=1/psy_rd=1.00: 0.00/mixed_ref=1/me_range=16/chroma_me=1/trellis=1/8x8dct=1/cqm=0/deadzone=21, 11/fast_pskip=1/chroma_qp_offset=-2/threads=48/lookahead_threads=5/sliced_threads=0/nr=0/decimate=1/interlaced=0/bluray_compat=0/constrained_intra=0/bframes=6/b_pyramid=2/b_adapt=1/b_bias=0/direct=1/weightb=1/open_gop=0/weightp=2/keyint=50/keyint_min=26/scenecut=0/intra_refresh=0/rc_lookahead=40/rc=2pass/mbtree=1/bitrate=2569/ratetol=1.0/qcomp=0.60/qpmin=0/qpmax=69/qpstep=4/cplxblur=20.0/qblur=0.5/vbv_maxrate=3854/vbv_bufsize=10279/nal_hrd=none/filler=0/ip_ratio=1.40/aq=1: 1.00
    Default : Да
    Forced : Нет
    Аудио
    Идентификатор : 2
    Формат : AC-3
    Формат/Информация : Audio Coding 3
    Идентификатор кодека : A_AC3
    Продолжительность : 48 м. 15 с.
    Вид битрейта : Постоянный
    Битрейт : 192 Кбит/сек
    Каналы : 2 канала
    Расположение каналов : Front: L R
    Частота : 48, 0 КГц
    Частота кадров : 31, 250 кадров/сек (1536 SPF)
    Битовая глубина : 16 бит
    Метод сжатия : С потерями
    Задержка видео : -80 мс.
    Размер потока : 66, 3 Мбайт (7%)
    Язык : Russian
    ServiceKind/String : Complete Main
    Default : Да
    Forced : Нет

    Скриншоты для ознакомления



    Все одноименные релизы в Клубе
    Время раздачи: 24/7 (круглосуточно) (до появления первых 3-5 скачавших)


    Онлайн видео Полёт Белой стрелы



    Полёт Белой стрелы/Белая стрела. Возмездие (2015) WEB-DLRip [H.264/720p-LQ] (серии 1-12 из 12)
    загрузка...
    Рейтинг →
     (голосов: 1, оценка 4/5, голосовать можно 1 раз )

    Другие торренты по теме:

  • Полёт Белой стрелы / Белая стрела. Возмездие (2015) SATRip (серии 1-6 из 12) (обновляемая) скачать через торрент бесплатно
  • Полёт Белой стрелы / Белая стрела. Возмездие (2015) SATRip [H.264] (1-9 серии из 12) (обновляемая) скачать через торрент бесплатно
  • Полёт Белой стрелы / Белая стрела. Возмездие (2015) WEBRip (серии 1-12 из 12)


    • Комментарии (0):

      Информация

      Информация

        Посетители, находящиеся в группе Гости, не могут оставлять комментарии в данной новости.

        ↓ Меню




        ↓ Опрос

        Вы добавили сайт в закладки?
        Да
        Нет


        Top 10 за месяц (Фильмы)