.
Авторизация | Регистрация
Хочешь лучшие торренты? Добавь свой email!
Добавить

Торрент скачать бесплатно

» » Евгений Гришковец - Шёпот сердца (2017) WEB-DLRip торрент скачать бесплатно




    Евгений Гришковец - Шёпот сердца (2017) WEB-DLRip торрент скачать бесплатно

    Опубликовал: Админ | Дата: 2-12-2017, 05:00 | Просмотров: 0

    Производство: Россия
    Жанр: Комедия
    Режиссер: Павел Судаков

    Актеры
    Евгений Гришковец

    Описание

    Евгений Гришковец, который переменил представления о жанре моноспектакля и даже сам стал определенным жанром, называет Шёпот сердца своей самой необычной и самой сокровенной работой.
    Это мой шестой монолог за семнадцать лет работы, над замыслом которого я думал больше пяти лет, а он мне никак не давался. Три с лишним года назад я даже подумывал отказаться от него и сделал Прощание с бумагой. Однако, снова и снова я возвращался к Шёпоту сердца… Это было время крайне тщательного и неспешного подбора слов и смыслов.

    Релиз от: waarheid
    Продолжительность: 02: 07: 58
    Качество видео: WEB-DLRip
    Субтитры: нет
    Видео: XviD, 720x400, 25 fps, ~1500kbps, 0.21 bit/pixel
    Аудио: MP3, 2 ch, 48 kHz, 128.00 kbps avg
    Общее
    Полное имя : Гришковец.Шепот сердца.2017_WEB-DLRip_by_waarheid.avi
    Формат : AVI
    Формат/Информация : Audio Video Interleave
    Размер файла : 1, 46 Гбайт
    Продолжительность : 2 ч. 7 м.
    Общий поток : 1637 Кбит/сек
    Программа кодирования : VirtualDubMod 1.5.10.3 |www.virtualdub-fr.org|| (build 2550/release)
    Видео
    Идентификатор : 0
    Формат : MPEG-4 Visual
    Профиль формата : Advanced Simple@L5
    Параметр BVOP формата : 1
    Параметр QPel формата : Нет
    Параметр GMC формата : Без точки перехода
    Параметр матрицы формата : Выборочная
    Идентификатор кодека : XVID
    Идентификатор кодека/Подсказка : XviD
    Продолжительность : 2 ч. 7 м.
    Битрейт : 1500 Кбит/сек
    Ширина : 720 пикселей
    Высота : 400 пикселей
    Соотношение сторон : 16: 9
    Частота кадров : 25, 000 кадров/сек
    Цветовое пространство : YUV
    Субдискретизация насыщенности : 4: 2: 0
    Битовая глубина : 8 бит
    Тип развёртки : Прогрессивная
    Метод сжатия : С потерями
    Бит/(Пиксели*Кадры) : 0.208
    Размер потока : 1, 34 Гбайт (92%)
    Библиотека кодирования : XviD 73
    Аудио
    Идентификатор : 1
    Формат : MPEG Audio
    Версия формата : Version 1
    Профиль формата : Layer 3
    Идентификатор кодека : 55
    Идентификатор кодека/Подсказка : MP3
    Продолжительность : 2 ч. 7 м.
    Вид битрейта : Постоянный
    Битрейт : 128 Кбит/сек
    Каналы : 2 канала
    Частота : 48, 0 КГц
    Метод сжатия : С потерями
    Размер потока : 117 Мбайт (8%)
    Выравнивание : Соединение по промежуткам
    Продолжительность промежутка : 40 мс. (1, 00 видеокадр)
    Время предзагрузки промежутка : 504 мс.
    Библиотека кодирования : LAME3.99r
    Настройки программы : -m s -V 4 -q 2 -lowpass 17 -b 128

    Скриншоты для ознакомления


    Все одноименные релизы в Клубе
    Время раздачи: Пн-Пт с 18: 00 до 22: 00 (до появления первых 3-5 скачавших)


    Онлайн видео Евгений Гришковец



    Евгений Гришковец - Шёпот сердца (2017) WEB-DLRip
    загрузка...
    Рейтинг →
     (голосов: 1, оценка 3/5, голосовать можно 1 раз )

    Другие торренты по теме:

  • Евгений Гришковец - +1 (Плюс один) (2013) WEB-DLRip [H.264] скачать через торрент бесплатно
  • Евгений Гришковец - Прощание с бумагой (2014) WEB-DLRip [H.264 / 720p-LQ] скачать через торрент бесплатно
  • Евгений Гришковец | Планка (2013) [MP3]
  • Евгений Гришковец | Боль (2016) [MP3]
  • Евгений Гришковец | Прощание с бумагой (2017) [MP3]
  • Евгений Гришковец | Водка и география. Зависть (2017) [MP3]
  • Евгений Гришковец & Mgzavrebi - Ждать Жить Ждать (2013) [MP3|320 Kbps] <Rock>


    • Комментарии (0):

      Информация

      Информация

        Посетители, находящиеся в группе Гости, не могут оставлять комментарии в данной новости.

        ↓ Меню




        ↓ Опрос

        Вы добавили сайт в закладки?
        Да
        Нет


        Top 10 за месяц (Фильмы)