.
Авторизация | Регистрация
Хочешь лучшие торренты? Добавь свой email!
Добавить

Торрент скачать бесплатно

» » Ди-Джей / Duvvada Jagannadham (2017) WEBRip [MVO] торрент скачать бесплатно




    Ди-Джей / Duvvada Jagannadham (2017) WEBRip [MVO] торрент скачать бесплатно

    Опубликовал: Админ | Дата: 2-12-2017, 05:00 | Просмотров: 0

    Производство: Индия
    Жанр: Боевик, Триллер, Комедия
    Режиссер: Хэриш Шанкар
    Продюсер: Дил Раджу

    Актеры
    Аллу Арджун, Таникелла Бхарани, Брахманандам, Пуджа Хегде, Рао Рамеш, Суббараджу

    Описание

    Дуввада работает поваром и своими кулинарными шедеврами покоряет сердца и желудки всего города. Однако, это не единственная его работа. Молодой парень, после того, как бандиты убили его дядю, становится безжалостным киллером, жестоко расправляющимся с преступным миром. Криминальное сообщество впадает в панику из_за появления неизвестного киллера, ищущего справедливость и поэтому объявляет в своих кругах огромное вознаграждение за его поимку. Однако Дуввада не собирается отступать и сдаваться на милость бандитам, он ищет способ выкрутиться из ловушки и продолжить свою миссию, оставаясь при этом любимым и лучшим поваром во всем городе

    Возраст: этот продукт не был классифицирован
    Рейтинг MPAA: этот продукт не был классифицирован
    Релиз от: группы Selena
    Продолжительность: 02: 01: 30
    Качество видео: WEBRip
    Перевод: Двуголосый закадровый
    Субтитры: Русские неотключаемые (в начале фильма)
    Видео: Xvid, 720х420@995x448, ~1599 Kbps
    Аудио: AAC, 2 ch, 192 Kbps

    Общее
    Полное имя : E: ИндияDuvvada.Jagannadham.2017.WEBRip.avi
    Формат : AVI
    Формат/Информация : Audio Video Interleave
    Профиль формата : OpenDML
    Размер файла : 1, 53 Гбайт
    Продолжительность : 2 ч. 1 м.
    Режим общего битрейта : Переменный
    Общий поток : 1806 Кбит/сек
    Программа кодирования : Lavf57.71.100
    Видео
    Идентификатор : 0
    Формат : MPEG-4 Visual
    Профиль формата : Advanced Simple@L5
    Параметр BVOP формата : 1
    Параметр QPel формата : Нет
    Параметр GMC формата : Без точки перехода
    Параметр матрицы формата : Default (H.263)
    Идентификатор кодека : XVID
    Идентификатор кодека/Подсказка : XviD
    Продолжительность : 2 ч. 1 м.
    Битрейт : 1599 Кбит/сек
    Ширина : 720 пикселей
    Высота : 420 пикселей
    Соотношение сторон : 2, 40: 1
    Частота кадров : 25, 000 кадров/сек
    Цветовое пространство : YUV
    Субдискретизация насыщенности : 4: 2: 0
    Битовая глубина : 8 бит
    Тип развёртки : Прогрессивная
    Метод сжатия : С потерями
    Бит/(Пиксели*Кадры) : 0.212
    Размер потока : 1, 36 Гбайт (89%)
    Библиотека кодирования : XviD 67
    Аудио
    Идентификатор : 1
    Формат : AAC
    Формат/Информация : Advanced Audio Codec
    Версия формата : Version 4
    Профиль формата : LC
    Режим смешивания : ADTS
    Идентификатор кодека : FF
    Продолжительность : 2 ч. 1 м.
    Вид битрейта : Переменный
    Битрейт : 192 Кбит/сек
    Каналы : 2 канала
    Расположение каналов : Front: L R
    Частота : 44, 1 КГц
    Частота кадров : 43, 066 кадра/сек (1024 spf)
    Метод сжатия : С потерями
    Размер потока : 167 Мбайт (11%)
    Выравнивание : Соединение по промежуткам
    Продолжительность промежутка : 23 мс. (0, 58 видеокадр)

    Скриншоты для ознакомления



    Все одноименные релизы в Клубе
    Время раздачи: Пн-Пт с 18: 00 до 22: 00, Сб-Вс с 19: 00 до 22: 00 (до появления первых 3-5 скачавших)


    Онлайн видео Ди-Джей



    Ди-Джей/Duvvada Jagannadham (2017) WEBRip [MVO]
    загрузка...
    Рейтинг →
     (голосов: 1, оценка 4/5, голосовать можно 1 раз )

    Другие торренты по теме:

  • Джей Ди Баркер | Четвертая обезьяна (2017) [FB2]


    • Комментарии (0):

      Информация

      Информация

        Посетители, находящиеся в группе Гости, не могут оставлять комментарии в данной новости.

        ↓ Меню




        ↓ Опрос

        Вы добавили сайт в закладки?
        Да
        Нет


        Top 10 за месяц (Фильмы)