.
Авторизация | Регистрация
Хочешь лучшие торренты? Добавь свой email!
Добавить

Торрент скачать бесплатно

» » Пленник второй авеню / The Prisoner of Second Avenue (1975) DVDRip [H.264] торрент скачать бесплатно




    Пленник второй авеню / The Prisoner of Second Avenue (1975) DVDRip [H.264] торрент скачать бесплатно

    Опубликовал: Админ | Дата: 2-12-2017, 05:00 | Просмотров: 0

    Производство: США/Warner Bros. Pictures
    Жанр: Драма, Комедия
    Режиссер: Мелвин Фрэнк
    Продюсер: Мелвин Фрэнк

    Актеры
    Джек Леммон, Энн Бэнкрофт, Джин Сэкс, Элизабет Уилсон, Флоренс Стэнли, Максин Стюарт, Эд Пек, Джин Блэйкли, Айвор Френсис, Стэк Пирс

    Описание

    Мэл и Эдна — типичные представители среднего класса. Одна из счастливых пар средних лет, живущих на Манхэттене. Но однажды Мэл теряет работу, их квартиру грабят, Мэл теряет вес в обществе. Стоит только Эдне устроится на работу, как ее тут же увольняют. И это только начало…

    Рейтинг MPAA: PG (рекомендуется присутствие родителей)
    Релиз от: Охрана (NNMCLUB)
    Продолжительность: 01: 38: 04
    Качество видео: DVDRip
    Перевод: Профессиональный (многоголосый закадровый)
    Субтитры: Отсутствуют
    Видео: AVC/H.264, 720x304, ~1802 Kbps
    Аудио 1: Русский, AC3, 2 ch, 128 Kbps, 48.0 kHz
    Аудио 2: Английский, AC3, 1 ch, 192 Kbps, 48.0 kHz

    General
    Unique ID : 251950781696453055204374648887458561452 (0xBD8BF49B85F63100B1CCD75FB9867DAC)
    Complete name : F: DownloadsПленник второй авеню. 1975. NNMCLUB.mkv
    Format : Matroska
    Format version : Version 4/Version 2
    File size : 1.45 GiB
    Duration : 1h 38mn
    Overall bit rate : 2 124 Kbps
    Encoded date : UTC 2017-11-29 12: 58: 55
    Writing application : mkvmerge v7.0.0 (\'Where We Going\') 32bit built on Jun 9 2014 15: 08: 34
    Writing library : libebml v1.3.0 + libmatroska v1.4.1
    DURATION : 01: 38: 03.904000000
    NUMBER_OF_FRAMES : 183872
    NUMBER_OF_BYTES : 141213696
    _STATISTICS_WRITING_APP : mkvmerge v7.0.0 (\'Where We Going\') 32bit built on Jun 9 2014 15: 08: 34
    _STATISTICS_WRITING_DATE_UTC : 2017-11-29 12: 58: 55
    _STATISTICS_TAGS : BPS DURATION NUMBER_OF_FRAMES NUMBER_OF_BYTES
    Video
    ID : 1
    Format : AVC
    Format/Info : Advanced Video Codec
    Format profile : High@L4.1
    Format settings, CABAC : Yes
    Format settings, ReFrames : 12 frames
    Codec ID : V_MPEG4/ISO/AVC
    Duration : 1h 38mn
    Bit rate : 1 802 Kbps
    Width : 720 pixels
    Height : 304 pixels
    Display aspect ratio : 2.35: 1
    Frame rate mode : Constant
    Frame rate : 23.976 fps
    Color space : YUV
    Chroma subsampling : 4: 2: 0
    Bit depth : 8 bits
    Scan type : Progressive
    Bits/(Pixel*Frame) : 0.343
    Stream size : 1.21 GiB (83%)
    Title : The Prisoner of Second Avenue
    Writing library : x264 core 125 r2208 d9d2288
    Encoding settings : cabac=1/ref=12/deblock=1: -1: -1/analyse=0x3: 0x133/me=umh/subme=10/psy=1/psy_rd=1.00: 0.10/mixed_ref=1/me_range=32/chroma_me=1/trellis=2/8x8dct=1/cqm=0/deadzone=21, 11/fast_pskip=0/chroma_qp_offset=-3/threads=6/lookahead_threads=1/sliced_threads=0/nr=0/decimate=0/interlaced=0/bluray_compat=0/constrained_intra=0/bframes=7/b_pyramid=2/b_adapt=2/b_bias=0/direct=3/weightb=1/open_gop=0/weightp=2/keyint=250/keyint_min=25/scenecut=40/intra_refresh=0/rc_lookahead=60/rc=2pass/mbtree=1/bitrate=1802/ratetol=1.0/qcomp=0.60/qpmin=0/qpmax=69/qpstep=4/cplxblur=20.0/qblur=0.5/ip_ratio=1.40/aq=1: 1.00
    Language : English
    Default : Yes
    Forced : No
    Audio #1
    ID : 2
    Format : AC-3
    Format/Info : Audio Coding 3
    Mode extension : CM (complete main)
    Format settings, Endianness : Big
    Codec ID : A_AC3
    Duration : 1h 38mn
    Bit rate mode : Constant
    Bit rate : 128 Kbps
    Channel(s) : 2 channels
    Channel positions : Front: L R
    Sampling rate : 48.0 KHz
    Bit depth : 16 bits
    Compression mode : Lossy
    Delay relative to video : 23ms
    Stream size : 89.8 MiB (6%)
    Title : Многоголосый закадровый
    Language : Russian
    Default : Yes
    Forced : No
    Audio #2
    ID : 3
    Format : AC-3
    Format/Info : Audio Coding 3
    Mode extension : CM (complete main)
    Format settings, Endianness : Big
    Codec ID : A_AC3
    Duration : 1h 38mn
    Bit rate mode : Constant
    Bit rate : 192 Kbps
    Channel(s) : 1 channel
    Channel positions : Front: C
    Sampling rate : 48.0 KHz
    Bit depth : 16 bits
    Compression mode : Lossy
    Delay relative to video : 23ms
    Stream size : 135 MiB (9%)
    Title : Оригинал
    Language : English
    Default : No
    Forced : No

    Скриншоты для ознакомления




    Все одноименные релизы в Клубе
    Время раздачи: с 13: 00 до 01: 00 МСК, выходные круглосуточно (до появления первых 3-5 скачавших)


    Онлайн видео Пленник второй авеню



    Пленник второй авеню/The Prisoner of Second Avenue (1975) DVDRip [H.264]
    загрузка...
    Рейтинг →
     (голосов: 1, оценка 3/5, голосовать можно 1 раз )

    Другие торренты по теме:

  • Пленник / Captive (2015) BDRemux [H.264 / 1080p] [EN / EN, Fr, Sp, Po, Ge Sub] скачать через торрент бесплатно
  • Андрей Битов | Кавказский пленник (2012) [MP3]
  • Михаил Юрьевич Лермонтов | Кавказский пленник (1915) [PDF]
  • Пленник / Captive (2015) BDRip [H.264] [Line]
  • Пленник / Captive (2015) BDRip [Line]
  • Генри Лайон Олди | Пленник железной горы (2016) [MP3]
  • Генри Лайон Олди | Пленник железной горы (2016) [FB2]
  • Кавказский пленник (1975) DVBRip [H.264]


    • Комментарии (0):

      Информация

      Информация

        Посетители, находящиеся в группе Гости, не могут оставлять комментарии в данной новости.

        ↓ Меню




        ↓ Опрос

        Вы добавили сайт в закладки?
        Да
        Нет


        Top 10 за месяц (Фильмы)