.
Авторизация | Регистрация
Хочешь лучшие торренты? Добавь свой email!
Добавить

Торрент скачать бесплатно

» » Невидимый гость / Contratiempo (2016) BDRip [H.264 / 720p] [MVO] торрент скачать бесплатно




    Невидимый гость / Contratiempo (2016) BDRip [H.264 / 720p] [MVO] торрент скачать бесплатно

    Опубликовал: Админ | Дата: 2-12-2017, 05:00 | Просмотров: 0

    Производство: Испания/Atresmedia, Atresmedia Cine, Colosé Producciones, Movistar+
    Жанр: Триллер, криминал, детектив
    Режиссер: Ориол Паоло

    Актеры
    Марио Касас, Хосе Коронадо, Барбара Ленни, Ана Вахенер, Франсеск Орелья, Кристиан Валенсиа, Пако Тоус, Бетси Тунес, Давид Сельвас

    Описание

    Молодой бизнесмен Эдриан Дориа просыпается в закрытом изнутри номере отеля рядом с бездыханным телом своей любовницы. Его обвиняют в убийстве, но он, не считая себя виновным, решает воспользоваться услугами Вирджинии Гудман, лучшего в стране специалиста по выходу из самых сложных ситуаций. В течение одной ночи консультант и её клиент будут работать, чтобы найти разумное опровержение обвинению, и, тем самым, высвободить его из тюрьмы.

    Продолжительность: 01: 46: 20
    Качество видео: BDRip
    Перевод: Профессиональный многоголосый (AlexFilm)
    Субтитры: Английские
    Видео: AVC, 1280x536 (2.35: 1), 23.976 fps, 4 296 Kbps (0.261 bit/pixel)
    Аудио #1: AC-3, 48.0 KHz, 6 ch, 640 Kbps, CBR | Русский
    Аудио #2: AC-3, 48.0 KHz, 6 ch, 640 Kbps, CBR | Испанский

    Общее
    Уникальный идентификатор : 225625144427982371435188645459887550575 (0xA9BDD27AC907CC048E135E6F77E2706F)
    Полное имя : D: NNMНевидимый гостьNevidimyj gostj 2016 BDRip 720p.mkv
    Формат : Matroska
    Версия формата : Version 4/Version 2
    Размер файла : 4, 14 Гбайт
    Продолжительность : 1 ч. 46 м.
    Общий поток : 5577 Кбит/сек
    Дата кодирования : UTC 2017-11-30 23: 36: 27
    Программа кодирования : mkvmerge v7.1.0 (\'Good Love\') 64bit built on Jul 27 2014 13: 06: 55
    Библиотека кодирования : libebml v1.3.0 + libmatroska v1.4.1
    Видео
    Идентификатор : 1
    Формат : AVC
    Формат/Информация : Advanced Video Codec
    Профиль формата : High@L4.1
    Параметр CABAC формата : Да
    Параметр RefFrames формата : 5 кадров
    Идентификатор кодека : V_MPEG4/ISO/AVC
    Продолжительность : 1 ч. 46 м.
    Битрейт : 4296 Кбит/сек
    Ширина : 1280 пикселей
    Высота : 536 пикселей
    Соотношение сторон : 2, 40: 1
    Режим частоты кадров : Постоянный
    Частота кадров : 23, 976 (24000/1001) кадра/сек
    Цветовое пространство : YUV
    Субдискретизация насыщенности : 4: 2: 0
    Битовая глубина : 8 бит
    Тип развёртки : Прогрессивная
    Бит/(Пиксели*Кадры) : 0.261
    Размер потока : 3, 11 Гбайт (75%)
    Библиотека кодирования : x264 core 148 r2744 b97ae06
    Настройки программы : cabac=1/ref=8/deblock=1: -3: -3/analyse=0x3: 0x133/me=umh/subme=9/psy=1/psy_rd=1.00: 0.00/mixed_ref=1/me_range=16/chroma_me=1/trellis=2/8x8dct=1/cqm=0/deadzone=21, 11/fast_pskip=0/chroma_qp_offset=-2/threads=17/lookahead_threads=1/sliced_threads=0/nr=0/decimate=1/interlaced=0/bluray_compat=0/constrained_intra=0/bframes=3/b_pyramid=2/b_adapt=1/b_bias=0/direct=3/weightb=1/open_gop=0/weightp=2/keyint=250/keyint_min=23/scenecut=40/intra_refresh=0/rc_lookahead=50/rc=2pass/mbtree=1/bitrate=4296/ratetol=1.0/qcomp=0.60/qpmin=0/qpmax=69/qpstep=4/cplxblur=20.0/qblur=0.5/ip_ratio=1.40/aq=1: 1.00
    Язык : English
    Default : Да
    Forced : Нет
    Аудио #1
    Идентификатор : 3
    Формат : AC-3
    Формат/Информация : Audio Coding 3
    Параметр Endianness формата : Big
    Идентификатор кодека : A_AC3
    Продолжительность : 1 ч. 46 м.
    Вид битрейта : Постоянный
    Битрейт : 640 Кбит/сек
    Каналы : 6 каналов
    Расположение каналов : Front: L C R, Side: L R, LFE
    Частота : 48, 0 КГц
    Частота кадров : 31, 250 кадров/сек (1536 SPF)
    Битовая глубина : 16 бит
    Метод сжатия : С потерями
    Размер потока : 487 Мбайт (11%)
    Язык : Russian
    ServiceKind/String : Complete Main
    Default : Да
    Forced : Нет
    Аудио #2
    Идентификатор : 4
    Формат : AC-3
    Формат/Информация : Audio Coding 3
    Параметр Endianness формата : Big
    Идентификатор кодека : A_AC3
    Продолжительность : 1 ч. 46 м.
    Вид битрейта : Постоянный
    Битрейт : 640 Кбит/сек
    Каналы : 6 каналов
    Расположение каналов : Front: L C R, Side: L R, LFE
    Частота : 48, 0 КГц
    Частота кадров : 31, 250 кадров/сек (1536 SPF)
    Битовая глубина : 16 бит
    Метод сжатия : С потерями
    Размер потока : 487 Мбайт (11%)
    Язык : Spanish
    ServiceKind/String : Complete Main
    Default : Нет
    Forced : Нет
    Текст
    Идентификатор : 2
    Формат : UTF-8
    Идентификатор кодека : S_TEXT/UTF8
    Идентификатор кодека/Информация : UTF-8 Plain Text
    Язык : English
    Default : Нет
    Forced : Нет

    Скриншоты для ознакомления



    Все одноименные релизы в Клубе Время раздачи: Круглосуточно до 10 скачавших


    Онлайн видео Невидимый гость



    Невидимый гость/Contratiempo (2016) BDRip [H.264/720p] [MVO]
    загрузка...
    Рейтинг →
     (голосов: 1, оценка 3/5, голосовать можно 1 раз )

    Другие торренты по теме:

  • Невидимый гость / Contratiempo (2016) WEB-DLRip
  • Невидимый гость / Contratiempo (2016) HDRip
  • Невидимый гость / Contratiempo (2016) BDRip [H.264 / 1080p] [MVO] [AD]
  • Невидимый гость / Contratiempo (2016) WEB-DLRip [H.264] [MP4|640x354@852x354] [MVO][AD]
  • Невидимый гость / Contratiempo (2016) BDRemux [H.264 / 1080p] [VO]
  • Невидимый гость / Contratiempo (2016) BDRip [H.264 / 720p] [VO]
  • Невидимый гость / Contratiempo (2016) BDRip [H.264 / 1080p] [VO]
  • Невидимый гость / Contratiempo (2016) BDRip [H,264 / 720p-LQ] [VO]


    • Комментарии (0):

      Информация

      Информация

        Посетители, находящиеся в группе Гости, не могут оставлять комментарии в данной новости.

        ↓ Меню




        ↓ Опрос

        Вы добавили сайт в закладки?
        Да
        Нет


        Top 10 за месяц (Фильмы)