.
Авторизация | Регистрация
Хочешь лучшие торренты? Добавь свой email!
Добавить

Торрент скачать бесплатно

» » Все святые / All Saints (2017) BDRemux [H.264 / 1080p] [EN / EN and other Sub] торрент скачать бесплатно




    Все святые / All Saints (2017) BDRemux [H.264 / 1080p] [EN / EN and other Sub] торрент скачать бесплатно

    Опубликовал: Админ | Дата: 2-12-2017, 05:00 | Просмотров: 0

    Производство: США/Affirm Films, Provident Films
    Жанр: драма
    Режиссер: Стив Гомер

    Актеры
    Кара Буоно, Бэрри Корбин, Джон Корбетт, Дэвид Кит, Грегори Алан Уильямс, Патрик Джонсон, Шонда Пирс, Джессиджеймс Локоррьер, Нельсон Ли, Эдвард Паркер

    Описание

    Драматическая картина повествует трагическую историю об пасторе Майкле Сперлоке. Этот человек, совместно с группой беженцев из Юго-Восточной Азии, пошел на всё, даже поставил на кон собственную жизнь, чтобы спасти простую маленькую церковь от неминуемого закрытия.

    Рейтинг MPAA: PG- Рекомендуется присутствие родителей

    Продолжительность: 01: 48: 49
    Качество видео: BDRemux
    Перевод: Отсутствует
    Язык озвучки: Английский
    Субтитры: Английские, арабские, болгарские, китайские, хорватские, чешские, французские, греческие, иврит, венгерские, исландские, итальянские, корейские, польские, португальские, румынские, сербские, словацкие, словенские, испанские, тайские, турецкие
    Видео: AVC, 1920x1080 (16: 9), 24887 kbps, 23.976 fps, 0.501 bpp
    Аудио: английский/DTS-HD/5.1/48 kHz/2161 kbps/16 bit (Core: 5.1/48 kHz/1509 kbps/16 bit)
    Код: выделить все
    General
    Unique ID All.Saints.2017.1080p.BluRay.REMUX.AVC.DTS-HD.MA.5.1.mkv
    Format : Matroska
    Format version : Version 4/Version 2
    File size : 21.3 GiB
    Duration : 1 h 48 min
    Overall bit rate mode : Variable
    Overall bit rate : 28.0 Mb/s
    Movie name : All Saints
    Encoded date : UTC 2017-11-30 19:21:12
    Writing application : mkvmerge v18.0.0 (\'Apricity\') 64-bit
    Writing library : libebml v1.3.5 + libmatroska v1.4.8
    Video
    ID : 1
    Format : AVC
    Format/Info : Advanced Video Codec
    Format profile :High@L4.1
    Format settings, CABAC : Yes
    Format settings, ReFrames : 2 frames
    Format settings, GOP : M=1, N=10
    Codec ID : V_MPEG4/ISO/AVC
    Duration : 1 h 48 min
    Bit rate mode : Variable
    Bit rate : 24.9 Mb/s
    Width : 1 920 pixels
    Height : 1 080 pixels
    Display aspect ratio : 16:9
    Frame rate mode : Constant
    Frame rate : 23.976 (24000/1001) FPS
    Color space : YUV
    Chroma subsampling : 4:2:0
    Bit depth : 8 bits
    Scan type : Progressive
    Bits/(Pixel*Frame) : 0.501
    Stream size : 18.9 GiB (89%)
    Title : MPEG-4 AVC Video/24887 kbps/1080p/23.976 fps/16:9/High Profile 4.1
    Language : English
    Default : Yes
    Forced : No
    Audio
    ID : 2
    Format : DTS
    Format/Info : Digital Theater Systems
    Format profile : MA/Core
    Mode : 16
    Format settings, Endianness : Big
    Codec ID : A_DTS
    Duration : 1 h 48 min
    Bit rate mode : Variable/Constant
    Bit rate : 2 161 kb/s/1 509 kb/s
    Channel(s) : 6 channels
    Channel positions : Front: L C R, Side: L R, LFE
    Sampling rate : 48.0 kHz
    Frame rate : 93.750 FPS (512 spf)
    Bit depth : 16 bits
    Compression mode : Lossless/Lossy
    Stream size : 1.64 GiB (8%)
    Title : DTS-HD Master Audio/5.1/48 kHz/2161 kbps/16-bit
    Language : English
    Default : Yes
    Forced : No
    Text #1
    ID : 3
    Format : PGS
    Codec ID : S_HDMV/PGS
    Codec ID/Info : Picture based subtitle format used on BDs/HD-DVDs
    Duration : 1 h 39 min
    Bit rate : 40.7 kb/s
    Count of elements : 2966
    Stream size : 28.9 MiB (0%)
    Language : English
    Default : No
    Forced : No
    Text #2
    ID : 4
    Format : PGS
    Codec ID : S_HDMV/PGS
    Codec ID/Info : Picture based subtitle format used on BDs/HD-DVDs
    Duration : 1 h 48 min
    Bit rate : 41.8 kb/s
    Count of elements : 3326
    Stream size : 32.3 MiB (0%)
    Title : SDH
    Language : English
    Default : No
    Forced : No
    Text #3
    ID : 5
    Format : PGS
    Codec ID : S_HDMV/PGS
    Codec ID/Info : Picture based subtitle format used on BDs/HD-DVDs
    Duration : 1 h 47 min
    Bit rate : 21.4 kb/s
    Count of elements : 3048
    Stream size : 16.5 MiB (0%)
    Language : Arabic
    Default : No
    Forced : No
    Text #4
    ID : 6
    Format : PGS
    Codec ID : S_HDMV/PGS
    Codec ID/Info : Picture based subtitle format used on BDs/HD-DVDs
    Duration : 1 h 47 min
    Bit rate : 37.3 kb/s
    Count of elements : 3046
    Stream size : 28.8 MiB (0%)
    Language : Bulgarian
    Default : No
    Forced : No
    Text #5
    ID : 7
    Format : PGS
    Codec ID : S_HDMV/PGS
    Codec ID/Info : Picture based subtitle format used on BDs/HD-DVDs
    Duration : 1 h 47 min
    Bit rate : 33.2 kb/s
    Count of elements : 3040
    Stream size : 25.6 MiB (0%)
    Language : Chinese
    Default : No
    Forced : No
    Text #6
    ID : 8
    Format : PGS
    Codec ID : S_HDMV/PGS
    Codec ID/Info : Picture based subtitle format used on BDs/HD-DVDs
    Duration : 1 h 47 min
    Bit rate : 30.3 kb/s
    Count of elements : 3044
    Stream size : 23.4 MiB (0%)
    Language : Chinese
    Default : No
    Forced : No
    Text #7
    ID : 9
    Format : PGS
    Codec ID : S_HDMV/PGS
    Codec ID/Info : Picture based subtitle format used on BDs/HD-DVDs
    Duration : 1 h 47 min
    Bit rate : 36.6 kb/s
    Count of elements : 3038
    Stream size : 28.3 MiB (0%)
    Language : Croatian
    Default : No
    Forced : No
    Text #8
    ID : 10
    Format : PGS
    Codec ID : S_HDMV/PGS
    Codec ID/Info : Picture based subtitle format used on BDs/HD-DVDs
    Duration : 1 h 47 min
    Bit rate : 36.7 kb/s
    Count of elements : 3040
    Stream size : 28.3 MiB (0%)
    Language : Czech
    Default : No
    Forced : No
    Text #9
    ID : 11
    Format : PGS
    Codec ID : S_HDMV/PGS
    Codec ID/Info : Picture based subtitle format used on BDs/HD-DVDs
    Duration : 1 h 47 min
    Bit rate : 40.2 kb/s
    Count of elements : 3034
    Stream size : 31.1 MiB (0%)
    Language : French
    Default : No
    Forced : No
    Text #10
    ID : 12
    Format : PGS
    Codec ID : S_HDMV/PGS
    Codec ID/Info : Picture based subtitle format used on BDs/HD-DVDs
    Duration : 1 h 47 min
    Bit rate : 43.7 kb/s
    Count of elements : 3032
    Stream size : 33.7 MiB (0%)
    Language : Greek
    Default : No
    Forced : No
    Text #11
    ID : 13
    Format : PGS
    Codec ID : S_HDMV/PGS
    Codec ID/Info : Picture based subtitle format used on BDs/HD-DVDs
    Duration : 1 h 47 min
    Bit rate : 26.1 kb/s
    Count of elements : 3038
    Stream size : 20.1 MiB (0%)
    Language : Hebrew
    Default : No
    Forced : No
    Text #12
    ID : 14
    Format : PGS
    Codec ID : S_HDMV/PGS
    Codec ID/Info : Picture based subtitle format used on BDs/HD-DVDs
    Duration : 1 h 47 min
    Bit rate : 38.1 kb/s
    Count of elements : 3038
    Stream size : 29.4 MiB (0%)
    Language : Hungarian
    Default : No
    Forced : No
    Text #13
    ID : 15
    Format : PGS
    Codec ID : S_HDMV/PGS
    Codec ID/Info : Picture based subtitle format used on BDs/HD-DVDs
    Duration : 1 h 47 min
    Bit rate : 39.9 kb/s
    Count of elements : 3042
    Stream size : 30.8 MiB (0%)
    Language : Icelandic
    Default : No
    Forced : No
    Text #14
    ID : 16
    Format : PGS
    Codec ID : S_HDMV/PGS
    Codec ID/Info : Picture based subtitle format used on BDs/HD-DVDs
    Duration : 1 h 47 min
    Bit rate : 39.1 kb/s
    Count of elements : 3014
    Stream size : 30.2 MiB (0%)
    Language : Italian
    Default : No
    Forced : No
    Text #15
    ID : 17
    Format : PGS
    Codec ID : S_HDMV/PGS
    Codec ID/Info : Picture based subtitle format used on BDs/HD-DVDs
    Duration : 1 h 47 min
    Bit rate : 27.2 kb/s
    Count of elements : 3046
    Stream size : 21.0 MiB (0%)
    Language : Korean
    Default : No
    Forced : No
    Text #16
    ID : 18
    Format : PGS
    Codec ID : S_HDMV/PGS
    Codec ID/Info : Picture based subtitle format used on BDs/HD-DVDs
    Duration : 1 h 47 min
    Bit rate : 41.2 kb/s
    Count of elements : 3044
    Stream size : 31.7 MiB (0%)
    Language : Polish
    Default : No
    Forced : No
    Text #17
    ID : 19
    Format : PGS
    Codec ID : S_HDMV/PGS
    Codec ID/Info : Picture based subtitle format used on BDs/HD-DVDs
    Duration : 1 h 47 min
    Bit rate : 39.9 kb/s
    Count of elements : 2677
    Stream size : 30.8 MiB (0%)
    Title : Brazilian
    Language : Portuguese
    Default : No
    Forced : No
    Text #18
    ID : 20
    Format : PGS
    Codec ID : S_HDMV/PGS
    Codec ID/Info : Picture based subtitle format used on BDs/HD-DVDs
    Duration : 1 h 47 min
    Bit rate : 41.0 kb/s
    Count of elements : 3034
    Stream size : 31.6 MiB (0%)
    Language : Portuguese
    Default : No
    Forced : No
    Text #19
    ID : 21
    Format : PGS
    Codec ID : S_HDMV/PGS
    Codec ID/Info : Picture based subtitle format used on BDs/HD-DVDs
    Duration : 1 h 47 min
    Bit rate : 37.2 kb/s
    Count of elements : 3032
    Stream size : 28.7 MiB (0%)
    Language : Romanian
    Default : No
    Forced : No
    Text #20
    ID : 22
    Format : PGS
    Codec ID : S_HDMV/PGS
    Codec ID/Info : Picture based subtitle format used on BDs/HD-DVDs
    Duration : 1 h 47 min
    Bit rate : 35.0 kb/s
    Count of elements : 3034
    Stream size : 27.0 MiB (0%)
    Language : Serbian
    Default : No
    Forced : No
    Text #21
    ID : 23
    Format : PGS
    Codec ID : S_HDMV/PGS
    Codec ID/Info : Picture based subtitle format used on BDs/HD-DVDs
    Duration : 1 h 47 min
    Bit rate : 40.5 kb/s
    Count of elements : 3040
    Stream size : 31.3 MiB (0%)
    Language : Slovak
    Default : No
    Forced : No
    Text #22
    ID : 24
    Format : PGS
    Codec ID : S_HDMV/PGS
    Codec ID/Info : Picture based subtitle format used on BDs/HD-DVDs
    Duration : 1 h 47 min
    Bit rate : 36.7 kb/s
    Count of elements : 3044
    Stream size : 28.3 MiB (0%)
    Language : Slovenian
    Default : No
    Forced : No
    Text #23
    ID : 25
    Format : PGS
    Codec ID : S_HDMV/PGS
    Codec ID/Info : Picture based subtitle format used on BDs/HD-DVDs
    Duration : 1 h 47 min
    Bit rate : 39.0 kb/s
    Count of elements : 3038
    Stream size : 30.1 MiB (0%)
    Title : Castillan
    Language : Spanish
    Default : No
    Forced : No
    Text #24
    ID : 26
    Format : PGS
    Codec ID : S_HDMV/PGS
    Codec ID/Info : Picture based subtitle format used on BDs/HD-DVDs
    Duration : 1 h 47 min
    Bit rate : 36.8 kb/s
    Count of elements : 2662
    Stream size : 28.4 MiB (0%)
    Title : Latin American
    Language : Spanish
    Default : No
    Forced : No
    Text #25
    ID : 27
    Format : PGS
    Codec ID : S_HDMV/PGS
    Codec ID/Info : Picture based subtitle format used on BDs/HD-DVDs
    Duration : 1 h 47 min
    Bit rate : 33.0 kb/s
    Count of elements : 3040
    Stream size : 25.5 MiB (0%)
    Language : Thai
    Default : No
    Forced : No
    Text #26
    ID : 28
    Format : PGS
    Codec ID : S_HDMV/PGS
    Codec ID/Info : Picture based subtitle format used on BDs/HD-DVDs
    Duration : 1 h 47 min
    Bit rate : 38.7 kb/s
    Count of elements : 3040
    Stream size : 29.8 MiB (0%)
    Language : Turkish
    Default : No
    Forced : No
    Menu
    00:00:00.000 : en: Chapter 1
    00:08:45.775 : en: Chapter 2
    00:13:58.171 : en: Chapter 3
    00:23:04.717 : en: Chapter 4
    00:28:44.348 : en: Chapter 5
    00:34:52.924 : en: Chapter 6
    00:39:03.049 : en: Chapter 7
    00:46:35.751 : en: Chapter 8
    00:51:14.863 : en: Chapter 9
    00:56:59.374 : en: Chapter 10
    01:00:06.269 : en: Chapter 11
    01:09:57.652 : en: Chapter 12
    01:16:28.167 : en: Chapter 13
    01:22:11.260 : en: Chapter 14
    01:27:56.646 : en: Chapter 15
    01:35:54.374 : en: Chapter 16


    Скриншоты для ознакомления



    Все одноименные релизы в Клубе
    Время раздачи: с 13: 00 до 23: 00


    Онлайн видео Все святые



    Все святые/All Saints (2017) BDRemux [H.264/1080p] [EN/EN and other Sub]
    загрузка...
    Рейтинг →
     (голосов: 1, оценка 4/5, голосовать можно 1 раз )

    Другие торренты по теме:

  • Святые и чужие / Святые и незнакомцы / Святые на чужой земле / Saints & Strangers (2015) HDTVRip (сезон 1, серии 1 из 2) IdeaFilm (обновляемая) скачать через торрент бесплатно
  • Святые и чужие / Святые и незнакомцы / Святые на чужой земле / Saints & Strangers (2015) HDTV [H.264 / 720p-LQ] (сезон 1, серии 1 из 2) IdeaFilm (обновляемая) скачать через торрент бесплатно
  • Святые и чужие / Святые и незнакомцы / Святые на чужой земле / Saints & Strangers (2015) WEB-DL [H.264 / 720p-LQ] (сезон 1, серия 1 из 4) (BaibaKo) (обновляемая) скачать через торрент бесплатно
  • Святые и чужие / Святые и незнакомцы / Святые на чужой земле / Saints & Strangers (2015) HDTV [H.264 / 720p-LQ] (сезон 1, серии 1 из 2) NewStudio (обновляемая) скачать через торрент бесплатно
  • Святые из трущоб (Святые из Бундока) / The Boondock Saints (1999) BDRip [H.264 / 1080p] скачать через торрент бесплатно
  • Святые из бундока 2: День всех святых / The Boondock Saints II: All Saints Day (2009) BDRip [H.265 / 1080p-LQ]
  • Грешники и святые / Sinners and Saints (2010) BDRip [H.264]
  • Они были солдатами: Пустота / Святые и солдаты: Пустота / Saints and Soldiers: The Void (2014) BDRip [H.264 / 1080p-LQ] [AVO]


    • Комментарии (0):

      Информация

      Информация

        Посетители, находящиеся в группе Гости, не могут оставлять комментарии в данной новости.

        ↓ Меню




        ↓ Опрос

        Вы добавили сайт в закладки?
        Да
        Нет


        Top 10 за месяц (Фильмы)