.
Авторизация | Регистрация
Хочешь лучшие торренты? Добавь свой email!
Добавить

Торрент скачать бесплатно

» » Жизнь впереди (2017) WEB-DL [H.264 / 1080p-LQ] торрент скачать бесплатно




    Жизнь впереди (2017) WEB-DL [H.264 / 1080p-LQ] торрент скачать бесплатно

    Опубликовал: Админ | Дата: 2-12-2017, 05:00 | Просмотров: 0

    Производство: Россия, Кинокомпания Kargo
    Жанр: Комедия
    Режиссер: Карен Оганесян
    Продюсер: Карен Оганесян

    Актеры
    Светлана Ходченкова, Александр Паль, Павел Прилучный, Артур Смольянинов, Денис Шведов, Егор Корешков, Ольга Медынич, Максим Виторган, Валерия Кожевникова, Юлия Александрова

    Описание

    11-й Б впервые собирается вместе через 15 лет после выпуска, и эта встреча для одноклассников — удивительная возможность на короткое время вернуться в прошлое. Старые секреты и личные счеты, обиды и первая любовь оборачиваются водоворотом страстей.

    Возраст: 16+ (зрителям, достигшим 16 лет)
    Дата мировой премьеры: 6 октября 2017
    Дата российской премьеры: 5 октября 2017, Централ Партнершип
    Продолжительность: 01: 25: 05
    Качество видео: WEB-DL
    Перевод: Не требуется (русский) iTunes
    Субтитры: Отсутствуют
    Видео: AVC/H.264, 1920x1080, 5118 kbps
    Аудио: 48 kHz, AC3 Dolby Digital, 3/2 (L, C, R, l, r) + LFE ch, ~384 kbps
    Общее
    Уникальный идентификатор : 247443707098162815253307181417374142419 (0xBA27ECAC5CFA47938892F2B8BF63CFD3)
    Полное имя : D: Жизнь.впереди.2017.WEB-DL.1080p.NNMClub.mkv
    Формат : Matroska
    Версия формата : Version 2
    Размер файла : 3, 34 Гбайт
    Продолжительность : 1 ч. 25 м.
    Общий поток : 5614 Кбит/сек
    Дата кодирования : UTC 2017-12-01 01: 58: 42
    Программа кодирования : mkvmerge v8.3.0 (\'Over the Horizon\') 64bit
    Библиотека кодирования : libebml v1.3.1 + libmatroska v1.4.2
    Видео
    Идентификатор : 1
    Формат : AVC
    Формат/Информация : Advanced Video Codec
    Профиль формата : High@L4
    Параметр CABAC формата : Да
    Параметр RefFrames формата : 4 кадра
    Идентификатор кодека : V_MPEG4/ISO/AVC
    Продолжительность : 1 ч. 25 м.
    Битрейт : 5118 Кбит/сек
    Ширина : 1920 пикселей
    Высота : 1080 пикселей
    Соотношение сторон : 16: 9
    Режим частоты кадров : Постоянный
    Частота кадров : 24, 000 кадра/сек
    Цветовое пространство : YUV
    Субдискретизация насыщенности : 4: 2: 0
    Битовая глубина : 8 бит
    Тип развёртки : Прогрессивная
    Бит/(Пиксели*Кадры) : 0.103
    Размер потока : 3, 04 Гбайт (91%)
    Язык : Russian
    Default : Да
    Forced : Нет
    Цветовой диапазон : Limited
    Основные цвета : BT.709
    Характеристики трансфера : BT.709
    Коэффициенты матрицы : BT.709
    Аудио
    Идентификатор : 2
    Формат : AC-3
    Формат/Информация : Audio Coding 3
    Параметр Endianness формата : Big
    Идентификатор кодека : A_AC3
    Продолжительность : 1 ч. 25 м.
    Вид битрейта : Постоянный
    Битрейт : 384 Кбит/сек
    Каналы : 6 каналов
    Расположение каналов : Front: L C R, Side: L R, LFE
    Частота : 48, 0 КГц
    Частота кадров : 31, 250 кадров/сек (1536 SPF)
    Битовая глубина : 16 бит
    Метод сжатия : С потерями
    Размер потока : 234 Мбайт (7%)
    Заголовок : iTunes
    Язык : Russian
    ServiceKind/String : Complete Main
    Default : Да
    Forced : Нет
    Меню
    00: 00: 00.000 : en: Глава 1
    00: 05: 48.375 : en: Глава 2
    00: 13: 01.208 : en: Глава 3
    00: 19: 47.874 : en: Глава 4
    00: 28: 41.915 : en: Глава 5
    00: 36: 57.456 : en: Глава 6
    00: 42: 39.081 : en: Глава 7
    00: 49: 04.789 : en: Глава 8
    00: 53: 59.455 : en: Глава 9
    01: 01: 06.455 : en: Глава 10
    01: 07: 50.330 : en: Глава 11
    01: 14: 56.205 : en: Глава 12

    Скриншоты для ознакомления



    Все одноименные релизы в Клубе
    Время раздачи: 24/7 (до появления первых 3-5 скачавших)


    Онлайн видео Жизнь впереди (2017) WEB-DL [H.264



    Жизнь впереди (2017) WEB-DL [H.264/1080p-LQ]
    загрузка...
    Рейтинг →
     (голосов: 1, оценка 5/5, голосовать можно 1 раз )

    Другие торренты по теме:

  • Новые Самоцветы и Инна Маликова - Вся жизнь впереди (2014) [MP3|320 кб / с]<Pop> скачать через торрент бесплатно
  • Жизнь впереди (2017) WEB-DLRip
  • Жизнь впереди (2017) WEB-DLRip [576p] iPad
  • Жизнь впереди (2017) WEB-DL [1080p] ATV
  • Жизнь впереди (2017) WEB-DLRip [H.264]


    • Комментарии (0):

      Информация

      Информация

        Посетители, находящиеся в группе Гости, не могут оставлять комментарии в данной новости.

        ↓ Меню




        ↓ Опрос

        Вы добавили сайт в закладки?
        Да
        Нет


        Top 10 за месяц (Фильмы)