.
Авторизация | Регистрация
Хочешь лучшие торренты? Добавь свой email!
Добавить

Торрент скачать бесплатно

» » Иностранец / The Foreigner (2017) WEB-DLRip [H.264 / 1080-LQ] [MVO] [AD] торрент скачать бесплатно



    Иностранец / The Foreigner (2017) WEB-DLRip [H.264 / 1080-LQ] [MVO] [AD] торрент скачать бесплатно

    Опубликовал: Админ | Дата: 2-12-2017, 05:00 | Просмотров: 0

    Производство: Великобритания, Китай, США/STX Entertainment, Sparkle Roll Media, Wanda Media Co.
    Жанр: Боевик, Триллер, Драма, Криминал, Детектив
    Режиссер: Мартин Кэмпбелл
    Продюсер: Орен Авив, Phillip Button, Джеки Чан

    Актеры
    Джеки Чан, Пирс Броснан, Кэти Льюнг, Майкл МакЭлхаттон, Лю Тао, Чарли Мерфи, Руфус Джонс, Марк Тэнди, Орла Брэйди, Рэй Фиарон, Каолан Бирн

    Описание

    Бывший спецагент, ветеран вьетнамской войны Цюань давно сложил оружие и ведет мирную жизнь. Но после того, как в теракте погибает его дочь-подросток, видя, что власти не спешат разыскивать преступников, Цюань сам начинает поиск. Он пойдет на все, чтобы совершить праведное возмездие…

    Возраст: 18+ (зрителям, достигшим 18 лет. запрещено для детей)
    Рейтинг MPAA: R (лицам до 17 лет обязательно присутствие взрослого)
    Дата мировой премьеры: 24 сентября 2017
    Дата российской премьеры: 30 ноября 2017, Парадиз
    Продолжительность: 01: 52: 15
    Качество видео: WEB-DLRip
    Перевод: Многоголосый закадровый, любительский (Колобок)
    Субтитры: Китайские, Английские (неотключаемые)
    Реклама: Присутствует вставка видео, голосовой и текстовой рекламы
    (одна вставка видео вырезана, одна осталась)
    Видео: AVC/H.264, 1920x800, ~4795 Kbps
    Аудио: AC3, 2 ch, 384 Kbps

    Общее
    Уникальный идентификатор : 338116583404311030297515061294215067473 (0xFE5EE2A0DF7ADE9351809A0E6801F751)
    Полное имя : D: ВидеоtorrrentThe.Foreigner.2017.P.WEB-DL.1O8Op.mkv
    Формат : Matroska
    Версия формата : Version 4/Version 2
    Размер файла : 4, 06 Гбайт
    Продолжительность : 1 ч. 52 м.
    Режим общего битрейта : Переменный
    Общий поток : 5180 Кбит/сек
    Программа кодирования : Lavf57.71.100
    Библиотека кодирования : Lavf57.71.100
    ErrorDetectionType : Per level 1
    Видео
    Идентификатор : 1
    Формат : AVC
    Формат/Информация : Advanced Video Codec
    Профиль формата : High@L4.1
    Параметр CABAC формата : Да
    Параметр RefFrames формата : 5 кадров
    Идентификатор кодека : V_MPEG4/ISO/AVC
    Продолжительность : 1 ч. 52 м.
    Вид битрейта : Переменный
    Битрейт : 4693 Кбит/сек
    Максимальный битрейт : 5500 Кбит/сек
    Ширина : 1920 пикселей
    Высота : 800 пикселей
    Соотношение сторон : 2, 40: 1
    Режим частоты кадров : Постоянный
    Частота кадров : 23, 976 (24000/1001) кадра/сек
    Стандарт вещания : Component
    Цветовое пространство : YUV
    Субдискретизация насыщенности : 4: 2: 0
    Битовая глубина : 8 бит
    Тип развёртки : Прогрессивная
    Бит/(Пиксели*Кадры) : 0.127
    Размер потока : 3, 68 Гбайт (91%)
    Default : Да
    Forced : Нет
    Цветовой диапазон : Limited
    Основные цвета : BT.709
    Характеристики трансфера : BT.709
    Коэффициенты матрицы : BT.709
    DURATION : 01: 52: 15.688000000
    Аудио
    Идентификатор : 2
    Формат : AC-3
    Формат/Информация : Audio Coding 3
    Параметр Endianness формата : Big
    Идентификатор кодека : A_AC3
    Продолжительность : 1 ч. 52 м.
    Вид битрейта : Постоянный
    Битрейт : 384 Кбит/сек
    Каналы : 2 канала
    Расположение каналов : Front: L R
    Частота : 48, 0 КГц
    Частота кадров : 31, 250 кадров/сек (1536 SPF)
    Битовая глубина : 16 бит
    Метод сжатия : С потерями
    Размер потока : 308 Мбайт (7%)
    ServiceKind/String : Complete Main
    Default : Да
    Forced : Нет
    DURATION : 01: 52: 15.663000000

    Скриншоты для ознакомления



    Все одноименные релизы в Клубе
    Время раздачи: 24/7 (до появления первых 3-5 скачавших)


    Онлайн видео Иностранец


    Прямая ссылка скачивания через uTorrent


    Иностранец/The Foreigner (2017) WEB-DLRip [H.264/1080-LQ] [MVO] [AD]
    загрузка...
    Рейтинг →
     (голосов: 1, оценка 3/5, голосовать можно 1 раз )

    Другие торренты по теме:

  • Иностранец / The Foreigner (2017) WEBRip [MVO] [AD]
  • Иностранец / The Foreigner (2017) WEBRip [H.264 / 1080p-LQ] [EN / EN, CH Sub]


    • Комментарии (0):

      Информация

      Информация

        Посетители, находящиеся в группе Гости, не могут оставлять комментарии в данной новости.

        ↓ Меню




        ↓ Опрос

        Вы добавили сайт в закладки?
        Да
        Нет


        Top 10 за месяц (Фильмы)