.
Авторизация | Регистрация
Хочешь лучшие торренты? Добавь свой email!
Добавить

Торрент скачать бесплатно

» » Договор на убийство / The Killing Pact (2017) WEBRip [MVO] [AD] торрент скачать бесплатно




    Договор на убийство / The Killing Pact (2017) WEBRip [MVO] [AD] торрент скачать бесплатно

    Опубликовал: Админ | Дата: 2-12-2017, 05:00 | Просмотров: 0

    Производство: США/Mainstay Productions, Silver Peak Productions
    Жанр: Триллер
    Режиссер: Джон Лойд

    Актеры
    Эмили Роуз, Брайан Краузе, Мелани Стоун, Брэндон Рэй Олив, Деметриус Дэниелс, Джесси Фадджиоли, Девин Хансен

    Описание

    Хэйли Юдалл пытается заработать на жизнь себе и своей четырнадцатилетней дочери, выплачивая алименты жестокому бывшему мужу. Она мечтает избавиться от бывшего и однажды вечером заключает с первыми встречными – Мелани и Кевином – договор устранить проблемы друг друга. Всё это кажется невинной затеей, пока люди – включая бывшего мужа Хэйли – не начинают умирать, и ей нужно выполнить уговор, чтобы не сесть в тюрьму за убийство...

    Дата мировой премьеры: 26 мая 2017
    Продолжительность: 01: 30: 39
    Качество видео: WEBRip
    Перевод: Любительский двухголосый (RecentFilms)
    Субтитры: Отсутствуют
    Реклама: Присутствуют вставки текстовой рекламы от KINOFRANK.COM!
    Видео: MPEG4, XviD, 720x400 (16: 9), 23.976 fps, 1 921 Kbps (0.278 bit/pixel)
    Аудио: AC-3, 48.0 KHz, 2 ch, 192 Kbps, CBR

    Общее
    Полное имя : D: NNMДоговор на убийствоThe Killing Pact 2017 WEBRip.avi
    Формат : AVI
    Формат/Информация : Audio Video Interleave
    Профиль формата : OpenDML
    Размер файла : 1, 35 Гбайт
    Продолжительность : 1 ч. 30 м.
    Общий поток : 2125 Кбит/сек
    Видео
    Идентификатор : 0
    Формат : MPEG-4 Visual
    Профиль формата : Advanced Simple@L5
    Параметр BVOP формата : 1
    Параметр QPel формата : Нет
    Параметр GMC формата : Без точки перехода
    Параметр матрицы формата : Выборочная
    Идентификатор кодека : XVID
    Идентификатор кодека/Подсказка : XviD
    Продолжительность : 1 ч. 30 м.
    Битрейт : 1921 Кбит/сек
    Ширина : 720 пикселей
    Высота : 400 пикселей
    Соотношение сторон : 16: 9
    Частота кадров : 23, 976 (24000/1001) кадра/сек
    Цветовое пространство : YUV
    Субдискретизация насыщенности : 4: 2: 0
    Битовая глубина : 8 бит
    Тип развёртки : Прогрессивная
    Метод сжатия : С потерями
    Бит/(Пиксели*Кадры) : 0.278
    Размер потока : 1, 22 Гбайт (90%)
    Библиотека кодирования : XviD 67
    Аудио
    Идентификатор : 1
    Формат : AC-3
    Формат/Информация : Audio Coding 3
    Параметр Endianness формата : Big
    Идентификатор кодека : 2000
    Продолжительность : 1 ч. 30 м.
    Вид битрейта : Постоянный
    Битрейт : 192 Кбит/сек
    Каналы : 2 канала
    Расположение каналов : Front: L R
    Частота : 48, 0 КГц
    Частота кадров : 31, 250 кадров/сек (1536 SPF)
    Битовая глубина : 16 бит
    Метод сжатия : С потерями
    Размер потока : 124 Мбайт (9%)
    Выравнивание : Соединение по промежуткам
    Продолжительность промежутка : 32 мс. (0, 77 видеокадр)
    ServiceKind/String : Complete Main

    Скриншоты для ознакомления



    Все одноименные релизы в Клубе Время раздачи: Круглосуточно до 10 скачавших


    Онлайн видео Договор на убийство



    Договор на убийство/The Killing Pact (2017) WEBRip [MVO] [AD]
    загрузка...
    Рейтинг →
     (голосов: 1, оценка 4/5, голосовать можно 1 раз )

    Другие торренты по теме:

  • Брачный договор / The Wedding Pact (2014) HDRip скачать через торрент бесплатно
  • Е.В.Воробьёва | Трудовой договор (2014) [PDF] скачать через торрент бесплатно
  • Варшавский договор. Рассекреченные страницы (2015) HDTV [H.264 / 1080i-LQ] скачать через торрент бесплатно
  • Варшавский договор. Рассекреченные страницы (2015) HDTVRip скачать через торрент бесплатно
  • Варшавский договор. Рассекреченные страницы (2015) DVB скачать через торрент бесплатно
  • Vermillion Watch: Moorgate Accord / Алый Дозор: Мургейтский договор (2016) [Ru] (1.0) Unofficial [Collectors Edition / Коллекционное издание]
  • А. Е. Пашерстник | Коллективный договор (1951) [DJVU]


    • Комментарии (0):

      Информация

      Информация

        Посетители, находящиеся в группе Гости, не могут оставлять комментарии в данной новости.

        ↓ Меню




        ↓ Опрос

        Вы добавили сайт в закладки?
        Да
        Нет


        Top 10 за месяц (Фильмы)