.
Авторизация | Регистрация
Хочешь лучшие торренты? Добавь свой email!
Добавить

Торрент скачать бесплатно

» » Геошторм / Geostorm (2017) WEBRip [MVO] торрент скачать бесплатно




    Геошторм / Geostorm (2017) WEBRip [MVO] торрент скачать бесплатно

    Опубликовал: Админ | Дата: 2-12-2017, 05:00 | Просмотров: 0

    Производство: США/Warner Bros., Electric Entertainment, Jerry Bruckheimer Films, Skydance Media
    Жанр: Фантастика, боевик, триллер
    Режиссер: Дин Девлин

    Актеры
    Джерард Батлер, Джим Стёрджесс, Эбби Корниш, Александра Мария Лара, Дэниэл Ву, Эухенио Дербес, Амр Вакед, Эдеперо Одуйе, Энди Гарсиа, Эд Харрис

    Описание

    После беспрецедентной серии стихийных бедствий, обрушившихся на нашу планету, лидеры мировых держав объединили усилия, чтобы создать разветвленную сеть орбитальных спутников по контролю над климатом для предотвращения природных катаклизмов. Но что-то пошло не так — система, выстроенная для защиты Земли, теперь угрожает ей. Начинается гонка наперегонки со временем, в которой надо успеть обнаружить реальную угрозу до того, как всемирный Геошторм сотрёт с лица Земли всё живое.

    Возраст: 16+ (зрителям, достигшим 16 лет)
    Рейтинг MPAA: PG-13 (детям до 13 лет просмотр нежелателен)
    Дата мировой премьеры: 12 октября 2017
    Дата российской премьеры: 19 октября 2017
    Продолжительность: 01: 48: 07
    Качество видео: WEBRip
    Перевод: Профессиональный многоголосый (Студия Paradox Omskbird records)
    Субтитры: Корейские (хардсаб)
    Видео: MPEG4, XviD, 720x304 (2.35: 1), 23.976 fps, 1 727 Kbps (0.329 bit/pixel)
    Аудио: AC-3, 48.0 KHz, 2 ch, 192 Kbps, CBR

    Общее
    Полное имя : D: NNMГеоштормGeostorm 2017 WEBRip.avi
    Формат : AVI
    Формат/Информация : Audio Video Interleave
    Размер файла : 1, 46 Гбайт
    Продолжительность : 1 ч. 48 м.
    Общий поток : 1928 Кбит/сек
    Программа кодирования : VirtualDubMod 1.5.10.3 (build 2550/release)
    Библиотека кодирования : VirtualDubMod build 2550/release
    Видео
    Идентификатор : 0
    Формат : MPEG-4 Visual
    Профиль формата : Advanced Simple@L5
    Параметр BVOP формата : 1
    Параметр QPel формата : Нет
    Параметр GMC формата : Без точки перехода
    Параметр матрицы формата : Выборочная
    Идентификатор кодека : XVID
    Идентификатор кодека/Подсказка : XviD
    Продолжительность : 1 ч. 48 м.
    Битрейт : 1727 Кбит/сек
    Ширина : 720 пикселей
    Высота : 304 пикселя
    Соотношение сторон : 2, 35: 1
    Частота кадров : 23, 976 (24000/1001) кадра/сек
    Частота кадров в оригинале : 23, 976 (23976/1000) кадра/сек
    Цветовое пространство : YUV
    Субдискретизация насыщенности : 4: 2: 0
    Битовая глубина : 8 бит
    Тип развёртки : Прогрессивная
    Метод сжатия : С потерями
    Бит/(Пиксели*Кадры) : 0.329
    Размер потока : 1, 30 Гбайт (90%)
    Библиотека кодирования : XviD 67
    Аудио
    Идентификатор : 1
    Формат : AC-3
    Формат/Информация : Audio Coding 3
    Параметр Endianness формата : Big
    Идентификатор кодека : 2000
    Продолжительность : 1 ч. 48 м.
    Вид битрейта : Постоянный
    Битрейт : 192 Кбит/сек
    Каналы : 2 канала
    Расположение каналов : Front: L R
    Частота : 48, 0 КГц
    Частота кадров : 31, 250 кадров/сек (1536 SPF)
    Битовая глубина : 16 бит
    Метод сжатия : С потерями
    Размер потока : 148 Мбайт (10%)
    Выравнивание : Разделение по промежуткам
    Продолжительность промежутка : 42 мс. (1, 00 видеокадр)
    Время предзагрузки промежутка : 500 мс.
    ServiceKind/String : Complete Main

    Скриншоты для ознакомления



    Все одноименные релизы в Клубе Время раздачи: Круглосуточно до 10 скачавших


    Онлайн видео Геошторм



    Геошторм/Geostorm (2017) WEBRip [MVO]
    загрузка...
    Рейтинг →
     (голосов: 1, оценка 4/5, голосовать можно 1 раз )

    Другие торренты по теме:

  • Геошторм / Geostorm (2017) WEBRip [H.264 / 1080p] [Трейлер]
  • Геошторм / Geostorm (2017) CamRip [AD]
  • Геошторм / Geostorm (2017) WEBRip [H.264 / 720p-LQ] [MVO] [AD]
  • Геошторм / Geostorm (2017) WEBRip [H.264 / 720p-LQ] [EN / KOR Sub]
  • Геошторм / Geostorm (2017) WEBRip [H.264 / 720p-LQ] [Line] [AD]
  • Геошторм / Geostorm (2017) WEBRip [H.264] [MVO]
  • Lorne Balfe - Geostorm / Геошторм (Original Motion Picture Soundtrack) (2017) [FLAC|Lossless|WEB-DL|tracks]<Soundtrack>
  • Lorne Balfe - Geostorm / Геошторм (Original Motion Picture Soundtrack) (2017) [MP3|320 кб / с]<Soundtrack>


    • Комментарии (0):

      Информация

      Информация

        Посетители, находящиеся в группе Гости, не могут оставлять комментарии в данной новости.

        ↓ Меню




        ↓ Опрос

        Вы добавили сайт в закладки?
        Да
        Нет


        Top 10 за месяц (Фильмы)