.
Авторизация | Регистрация
Хочешь лучшие торренты? Добавь свой email!
Добавить

Торрент скачать бесплатно

» » Валериан и город тысячи планет / Valerian and the City of a Thousand Planets (2017) BDRip [H.264 / 1080p-LQ] торрент скачать бесплатно




    Валериан и город тысячи планет / Valerian and the City of a Thousand Planets (2017) BDRip [H.264 / 1080p-LQ] торрент скачать бесплатно

    Опубликовал: Админ | Дата: 2-12-2017, 05:00 | Просмотров: 0

    Производство: Франция, Китай, Бельгия, Германия, ОАЭ, США, Великобритания, Канада/EuropaCorp
    Жанр: фантастика, фэнтези, боевик, приключения
    Режиссер: Люк Бессон
    Продюсер: Люк Бессон, Виржини Силла

    Актеры
    Дэйн ДеХаан, Кара Делевинь, Клайв Оуэн, Рианна, Итэн Хоук, Херби Хэнкок, Крис У, Сэм Спруэлл, Ален Шаба, Рутгер Хауэр

    Описание

    2700 год. Валериан и Лорелин — космические спецагенты, которые по долгу службы впутались в подозрительное дело и стали невольными участниками то ли межгалактического заговора, то ли аферы причудливых поселенцев планеты Альфа, прибывших туда из различных миров со всех уголков галактик.

    Возраст: 12+ (зрителям, достигшим 12 лет)
    Рейтинг MPAA: PG-13 (детям до 13 лет просмотр нежелателен)
    Дата мировой премьеры: 17 июля 2017
    Премьера (РФ): 10 августа 2017, Наше Кино, A-One Films 3D

    Релиз от: Magnetto83
    Продолжительность: 02: 06: 13
    Качество: BDRip 1080p-LQ
    Перевод: Дублированный (iTunes)
    Субтитры: Русские (форс. + полные), украинские (форс.), английские (Forced + Full + SDH + SDH-Colored)
    Видео: H.264/AVC, 1920x804, (2.40: 1), 4 109 kb/s, 23.976 fps
    Аудио: AC3, 6 ch, 384 kbps - Русский

    x264 info: frame I: 1972 Avg QP: 17.98 size: 139512
    x264 info: frame P: 50578 Avg QP: 21.19 size: 41376
    x264 info: frame B: 146051 Avg QP: 23.29 size: 12663
    x264 info: consecutive B-frames: 4.4% 4.6% 13.0% 22.4% 22.2% 28.3% 2.9% 0.8% 1.5%
    x264 total: encoded 198601 frames, 1.46 fps, 4073.08 kb/s
    General
    Unique ID : 221544757823358537634362451769025911294 (0xA6ABF7E3418DE2A69D05D0CF764859FE)
    Complete name : Валериан и город тысячи планет 2017 Dub Rus BDRip 1080p iTunes.mkv
    Format : Matroska
    Format version : Version 4/Version 2
    File size : 4.29 GiB
    Duration : 2 h 16 min
    Overall bit rate : 4 495 kb/s
    Movie name : Валериан и город тысячи планет 2017 Dub Rus BDRip 1080p By R.G. GoldenShara
    Encoded date : UTC 2017-11-28 20: 19: 24
    Writing application : mkvmerge v7.0.0 (\'Where We Going\') 64bit built on Jun 9 2014 15: 16: 27
    Writing library : libebml v1.3.0 + libmatroska v1.4.1
    Cover : Yes
    Attachments : Cover.jpg
    Video
    ID : 1
    Format : AVC
    Format/Info : Advanced Video Codec
    Format profile : High@L4.1
    Format settings, CABAC : Yes
    Format settings, RefFrames : 5 frames
    Codec ID : V_MPEG4/ISO/AVC
    Duration : 2 h 16 min
    Bit rate : 4 109 kb/s
    Width : 1 920 pixels
    Height : 804 pixels
    Display aspect ratio : 2.40: 1
    Frame rate mode : Constant
    Frame rate : 23.976 (24000/1001) FPS
    Color space : YUV
    Chroma subsampling : 4: 2: 0
    Bit depth : 8 bits
    Scan type : Progressive
    Bits/(Pixel*Frame) : 0.111
    Stream size : 3.92 GiB (91%)
    Title : Валериан и город тысячи планет 2017 BDRip 1080p By Magnetto 83
    Language : English
    Default : Yes
    Forced : No
    Audio
    ID : 2
    Format : AC-3
    Format/Info : Audio Coding 3
    Format settings, Endianness : Big
    Codec ID : A_AC3
    Duration : 2 h 16 min
    Bit rate mode : Constant
    Bit rate : 384 kb/s
    Channel(s) : 6 channels
    Channel positions : Front: L C R, Side: L R, LFE
    Sampling rate : 48.0 kHz
    Frame rate : 31.250 FPS (1536 SPF)
    Bit depth : 16 bits
    Compression mode : Lossy
    Delay relative to video : 500 ms
    Stream size : 375 MiB (9%)
    Title : DD 5.1 @ 384 Kbps - Дубляж | iTunes |
    Language : Russian
    Service kind : Complete Main
    Default : Yes
    Forced : No
    Text #1
    ID : 3
    Format : UTF-8
    Codec ID : S_TEXT/UTF8
    Codec ID/Info : UTF-8 Plain Text
    Duration : 2 h 5 min
    Bit rate : 1 b/s
    Count of elements : 30
    Stream size : 955 Bytes (0%)
    Title : Форс. (Bluebird)
    Language : Russian
    Default : Yes
    Forced : No
    Text #2
    ID : 4
    Format : UTF-8
    Codec ID : S_TEXT/UTF8
    Codec ID/Info : UTF-8 Plain Text
    Duration : 2 h 6 min
    Bit rate : 87 b/s
    Count of elements : 1541
    Stream size : 81.3 KiB (0%)
    Title : Полные (по дубляжу от Ash61)
    Language : Russian
    Default : No
    Forced : No
    Text #3
    ID : 5
    Format : UTF-8
    Codec ID : S_TEXT/UTF8
    Codec ID/Info : UTF-8 Plain Text
    Duration : 29 min 21 s
    Bit rate : 19 b/s
    Count of elements : 57
    Stream size : 4.30 KiB (0%)
    Title : Форс. (на бортовий комп\'ютер Алекс) (від Hurtom)
    Language : Ukrainian
    Default : No
    Forced : No
    Text #4
    ID : 6
    Format : UTF-8
    Codec ID : S_TEXT/UTF8
    Codec ID/Info : UTF-8 Plain Text
    Duration : 3 min 42 s
    Bit rate : 4 b/s
    Count of elements : 6
    Stream size : 121 Bytes (0%)
    Title : Forced (BD 3D Nor)
    Language : English
    Default : No
    Forced : No
    Text #5
    ID : 7
    Format : UTF-8
    Codec ID : S_TEXT/UTF8
    Codec ID/Info : UTF-8 Plain Text
    Duration : 2 h 5 min
    Bit rate : 55 b/s
    Count of elements : 1568
    Stream size : 51.3 KiB (0%)
    Title : Full
    Language : English
    Default : No
    Forced : No
    Text #6
    ID : 8
    Format : UTF-8
    Codec ID : S_TEXT/UTF8
    Codec ID/Info : UTF-8 Plain Text
    Duration : 2 h 13 min
    Bit rate : 57 b/s
    Count of elements : 1630
    Stream size : 56.2 KiB (0%)
    Title : Full (with songs)
    Language : English
    Default : No
    Forced : No
    Text #7
    ID : 9
    Format : UTF-8
    Codec ID : S_TEXT/UTF8
    Codec ID/Info : UTF-8 Plain Text
    Duration : 2 h 13 min
    Bit rate : 63 b/s
    Count of elements : 1906
    Stream size : 62.4 KiB (0%)
    Title : SDH
    Language : English
    Default : No
    Forced : No
    Text #8
    ID : 10
    Format : UTF-8
    Codec ID : S_TEXT/UTF8
    Codec ID/Info : UTF-8 Plain Text
    Duration : 2 h 13 min
    Bit rate : 113 b/s
    Count of elements : 1906
    Stream size : 111 KiB (0%)
    Title : SDH Colored
    Language : English
    Default : No
    Forced : No
    Menu
    00: 00: 00.000 : en: Chapter 1
    00: 11: 12.213 : en: Chapter 2
    00: 20: 10.500 : en: Chapter 3
    00: 30: 38.336 : en: Chapter 4
    00: 41: 21.562 : en: Chapter 5
    00: 51: 37.344 : en: Chapter 6
    01: 01: 54.919 : en: Chapter 7
    01: 10: 50.996 : en: Chapter 8
    01: 20: 27.489 : en: Chapter 9
    01: 34: 23.741 : en: Chapter 10
    01: 44: 35.102 : en: Chapter 11
    01: 57: 01.723 : en: Chapter 12
    02: 06: 18.195 : en: Chapter 13
    YouTube

    Скриншоты для ознакомления


    Релизы фильма Валериан и город тысячи планет/Valerian and the City of a Thousand Planets на NNM Club
    Время раздачи: с 9: 00 до 23: 00


    Онлайн видео Валериан и город тысячи планет



    Валериан и город тысячи планет/Valerian and the City of a Thousand Planets (2017) BDRip [H.264/1080p-LQ]
    загрузка...
    Рейтинг →
     (голосов: 1, оценка 5/5, голосовать можно 1 раз )

    Другие торренты по теме:

  • Валериан и город тысячи планет / Valerian and the City of a Thousand Planets (2017) WEBRip [EN] [Тизер]
  • Валериан и город тысячи планет / Valerian and the City of a Thousand Planets (2017) TS [MVO] [AD]
  • Валериан и город тысячи планет / Valerian and the City of a Thousand Planets (2017) TS [H.264 / 720p-LQ] [AD]
  • Кристи Голден | Валериан и Город Тысячи Планет (2017) [FB2]
  • Валериан и город тысячи планет / Valerian and the City of a Thousand Planets (2017) WEBRip [H.264 / 720p-LQ] [EN / KOR Sub]
  • Валериан и город тысячи планет / Valerian and the City of a Thousand Planets (2017) WEB-DLRip [MVO] [AD]
  • Валериан и город тысячи планет / Valerian and the City of a Thousand Planets (2017) WEB-DLRip [H.264 / 1080p-LQ] [MVO] [AD]
  • Валериан и город тысячи планет / Valerian and the City of a Thousand Planets (2017) WEB-DL [H.264 / 1080p-LQ] [EN / EN Sub]


    • Комментарии (0):

      Информация

      Информация

        Посетители, находящиеся в группе Гости, не могут оставлять комментарии в данной новости.

        ↓ Меню




        ↓ Опрос

        Вы добавили сайт в закладки?
        Да
        Нет


        Top 10 за месяц (Фильмы)