.
Авторизация | Регистрация
Хочешь лучшие торренты? Добавь свой email!
Добавить

Торрент скачать бесплатно

» » Джунгли / Jungle (2017) BDRip [H.264 / 720p] [AVO] торрент скачать бесплатно




    Джунгли / Jungle (2017) BDRip [H.264 / 720p] [AVO] торрент скачать бесплатно

    Опубликовал: Админ | Дата: 2-12-2017, 05:00 | Просмотров: 0

    Производство: Австралия, Колумбия, Babber Films, Cutting Edge Group, Screen Australia
    Жанр: Триллер, драма, приключения
    Режиссер: Грег МакЛин
    Продюсер: Тодд Фелмэн, Майк Габрави, Гари Хэмилтон

    Актеры
    Дэниэл Рэдклифф, Томас Кречман, Алекс Расселл, Джоэль Джексон, Лили Салливан, Ясмин Кассим, Яцек Коман, Луис Лопез, Энджи Милликен, Пэрис Молетти

    Описание

    Группа друзей отправляется в непроходимые джунгли Боливии в поисках экзотических впечатлений. Однако когда проводник исчезает и приятели остаются один на один с дикой природой, путешествие, начавшееся как забавное приключение, превращается в борьбу за выживание.

    Возраст: 18+ (зрителям, достигшим 18 лет. запрещено для детей)
    Рейтинг MPAA: R (лицам до 17 лет обязательно присутствие взрослого)
    Дата мировой премьеры: 3 августа 2017
    Дата российской премьеры: 2 ноября 2017, MEGOGO Distribution
    Релиз от: Релиз от k.e.n MegaPeer
    Продолжительность: 01: 55: 22
    Качество видео: BDRip 720p
    Перевод: Авторский (одноголосый, закадровый) М.Яроцкий(нецензурная лексика)
    Субтитры: Русские, английские
    Видео: AVC, 1280x534 (2.40: 1), 23.976 fps, 4 533 Kbps (0.277 bit/pixel)
    Аудио #1: AC-3, 48.0 KHz, 6 ch, 448 Kbps, CBR (Russian)
    Аудио #2: AC-3, 48.0 KHz, 6 ch, 448 Kbps, CBR (English)
    Полное имя : D: ФИЛЬМЫДжунгли. 2017 (Д.Ридклифф).k.e.n MegaPeer.mkv
    Формат : Matroska
    Версия формата : Version 2
    Размер файла : 4, 37 Гбайт
    Продолжительность : 1 ч. 55 м.
    Общий поток : 5429 Кбит/сек
    Дата кодирования : UTC 2017-11-30 05: 55: 10
    Программа кодирования : mkvmerge v5.3.0 (\'I could have danced\') built on Feb 9 2012 10: 38: 07
    Библиотека кодирования : libebml v1.2.3 + libmatroska v1.3.0
    Attachments : poster .png
    Видео
    Идентификатор : 1
    Формат : AVC
    Формат/Информация : Advanced Video Codec
    Профиль формата : High@L4.1
    Параметр CABAC формата : Да
    Параметр ReFrames формата : 12 кадров
    Идентификатор кодека : V_MPEG4/ISO/AVC
    Продолжительность : 1 ч. 55 м.
    Битрейт : 4533 Кбит/сек
    Ширина : 1280 пикселей
    Высота : 534 пикселя
    Соотношение сторон : 2, 40: 1
    Режим частоты кадров : Постоянный
    Частота кадров : 23, 976 (24000/1001) кадра/сек
    Цветовое пространство : YUV
    Субдискретизация насыщенности : 4: 2: 0
    Битовая глубина : 8 бит
    Тип развёртки : Прогрессивная
    Бит/(Пиксели*Кадры) : 0.277
    Размер потока : 3, 57 Гбайт (82%)
    Библиотека кодирования : x264 core 146 r2538 121396c
    Настройки программы : cabac=1/ref=12/deblock=1: -3: -3/analyse=0x3: 0x133/me=umh/subme=11/psy=1/psy_rd=1.02: 0.05/mixed_ref=1/me_range=32/chroma_me=1/trellis=2/8x8dct=1/cqm=0/deadzone=21, 11/fast_pskip=0/chroma_qp_offset=-3/threads=12/lookahead_threads=3/sliced_threads=0/nr=0/decimate=0/interlaced=0/bluray_compat=0/constrained_intra=0/bframes=10/b_pyramid=2/b_adapt=2/b_bias=0/direct=3/weightb=1/open_gop=0/weightp=2/keyint=240/keyint_min=23/scenecut=40/intra_refresh=0/rc=2pass/mbtree=0/bitrate=4533/ratetol=1.0/qcomp=0.60/qpmin=0/qpmax=69/qpstep=4/cplxblur=20.0/qblur=0.5/ip_ratio=1.40/pb_ratio=1.30/aq=1: 0.90
    Язык : English
    Default : Да
    Forced : Нет
    Аудио #1
    Идентификатор : 2
    Формат : AC-3
    Формат/Информация : Audio Coding 3
    Расширение режима : CM (complete main)
    Параметр Endianness формата : Big
    Идентификатор кодека : A_AC3
    Продолжительность : 1 ч. 55 м.
    Вид битрейта : Постоянный
    Битрейт : 448 Кбит/сек
    Каналы : 6 каналов
    Расположение каналов : Front: L C R, Side: L R, LFE
    Частота : 48, 0 КГц
    Частота кадров : 31, 250 кадров/сек (1536 spf)
    Битовая глубина : 16 бит
    Метод сжатия : С потерями
    Размер потока : 370 Мбайт (8%)
    Заголовок : Авторский М.Яроцкий
    Язык : Russian
    Default : Да
    Forced : Нет
    Аудио #2
    Идентификатор : 3
    Формат : AC-3
    Формат/Информация : Audio Coding 3
    Расширение режима : CM (complete main)
    Параметр Endianness формата : Big
    Идентификатор кодека : A_AC3
    Продолжительность : 1 ч. 55 м.
    Вид битрейта : Постоянный
    Битрейт : 448 Кбит/сек
    Каналы : 6 каналов
    Расположение каналов : Front: L C R, Side: L R, LFE
    Частота : 48, 0 КГц
    Частота кадров : 31, 250 кадров/сек (1536 spf)
    Битовая глубина : 16 бит
    Метод сжатия : С потерями
    Размер потока : 370 Мбайт (8%)
    Язык : English
    Default : Нет
    Forced : Нет
    Текст #1
    Идентификатор : 4
    Формат : UTF-8
    Идентификатор кодека : S_TEXT/UTF8
    Идентификатор кодека/Информация : UTF-8 Plain Text
    Язык : Russian
    Default : Нет
    Forced : Нет
    Текст #2
    Идентификатор : 5
    Формат : UTF-8
    Идентификатор кодека : S_TEXT/UTF8
    Идентификатор кодека/Информация : UTF-8 Plain Text
    Язык : English
    Default : Нет
    Forced : Нет
    Меню
    00: 00: 00.000 : : Chapter 01
    00: 09: 58.848 : : Chapter 02
    00: 19: 46.602 : : Chapter 03
    00: 29: 15.378 : : Chapter 04
    00: 38: 54.415 : : Chapter 05
    00: 49: 27.130 : : Chapter 06
    00: 58: 30.506 : : Chapter 07
    01: 07: 49.690 : : Chapter 08
    01: 16: 25.330 : : Chapter 09
    01: 24: 54.464 : : Chapter 10
    01: 32: 54.610 : : Chapter 11
    01: 44: 37.437 : : Chapter 12
    01: 55: 21.539 : : Chapter 13

    Скриншоты для ознакомления


    Все одноименные релизы в Клубе
    Время раздачи: 24/7 (до появления первых 3-5 скачавших)


    Онлайн видео Джунгли



    Джунгли/Jungle (2017) BDRip [H.264/720p] [AVO]
    загрузка...
    Рейтинг →
     (голосов: 1, оценка 4/5, голосовать можно 1 раз )

    Другие торренты по теме:

  • Из джунглей в джунгли / Jungle 2 Jungle / (1997) WEB-DL [H.264 / 1080p-LQ]
  • Джунгли / Jungle (2017) WEB-DLRip [MVO] [AD]
  • Джунгли / Jungle (2017) WEB-DLRip [H.264 / 720p-LQ] [MVO] [AD]
  • Джунгли / Jungle (2017) WEB-DLRip [H.264 / 1080p-LQ] [MVO] [AD]
  • Джунгли / Jungle (2017) HDRip [MVO] [AD]
  • Джунгли / Jungle (2017) BDRip [H.264 / 720p-LQ] [MVO] [AD]
  • Джунгли / Jungle (2017) BDRip [H.264 / 1080p-LQ] [MVO] [AD]
  • Джунгли / Jungle (2017) BDRemux [H.264 / 1080p] [EN / EN Sub]


    • Комментарии (0):

      Информация

      Информация

        Посетители, находящиеся в группе Гости, не могут оставлять комментарии в данной новости.

        ↓ Меню




        ↓ Опрос

        Вы добавили сайт в закладки?
        Да
        Нет


        Top 10 за месяц (Фильмы)