.
Авторизация | Регистрация
Хочешь лучшие торренты? Добавь свой email!
Добавить

Торрент скачать бесплатно

» » Мстители: Война бесконечности / Avengers: Infinity War (2018) WEBRip [H.264 / 1080p] [Трейлер] [EN] торрент скачать бесплатно




    Мстители: Война бесконечности / Avengers: Infinity War (2018) WEBRip [H.264 / 1080p] [Трейлер] [EN] торрент скачать бесплатно

    Опубликовал: Админ | Дата: 2-12-2017, 05:00 | Просмотров: 0

    Производство: США/Marvel Studios Inc.
    Жанр: Фантастика, Фэнтези, Боевик, Приключения
    Режиссер: Энтони Руссо, Джо Руссо
    Продюсер: Кевин Файги, Виктория Алонсо, Митчелл Белл

    Актеры
    Роберт Дауни мл., Джош Бролин, Марк Руффало, Том Хиддлстон, Крис Эванс, Крис Хемсворт, Джереми Реннер, Крис Пратт, Элизабет Олсен, Себастьян Стэн и др.

    Описание

    Пока Мстители и их союзники продолжают защищать мир от различных опасностей, с которыми не смог бы справиться один супергерой, новая угроза возникает из космоса: Танос. Межгалактический тиран преследует цель собрать все шесть Камней Бесконечности — артефакты невероятной силы, с помощью которых можно менять реальность по своему желанию. Всё, с чем Мстители сталкивались ранее, вело к этому моменту — судьба Земли никогда ещё не была столь неопределённой.

    Дата мировой премьеры: 25 апреля 2018
    Дата российской премьеры: 3 мая 2018
    Продолжительность: 00: 02: 30
    Качество видео: WEBRip
    Субтитры: Отсутствуют
    Перевод: Отсутствует
    Язык: Английский
    Видео: AVC/H.264, 1920x1080, ~8952 Kbps
    Аудио: AAC, 2 ch, 125 Kbps

    Общее
    Полное имя : C: Avengers_ Infinity War Трейлер.mkv
    Формат : Matroska
    Версия формата : Version 4/Version 2
    Размер файла : 163 Мбайт
    Продолжительность : 2 м. 30 с.
    Общий поток : 9079 Кбит/сек
    Дата кодирования : UTC 2017-11-30 17: 36: 34
    Программа кодирования : mkvmerge v11.0.0 (\'Alive\') 64bit
    Библиотека кодирования : libebml v1.3.4 + libmatroska v1.4.5
    Видео
    Идентификатор : 1
    Формат : AVC
    Формат/Информация : Advanced Video Codec
    Профиль формата : Main@L4
    Настройки формата : 2 Ref Frames
    Параметр CABAC формата : Нет
    Параметр RefFrames формата : 2 кадра
    Идентификатор кодека : V_MPEG4/ISO/AVC
    Продолжительность : 2 м. 30 с.
    Битрейт : 8952 Кбит/сек
    Ширина : 1920 пикселей
    Высота : 816 пикселей
    Соотношение сторон : 2, 35: 1
    Режим частоты кадров : Постоянный
    Частота кадров : 23, 976 (24000/1001) кадра/сек
    Цветовое пространство : YUV
    Субдискретизация насыщенности : 4: 2: 0
    Битовая глубина : 8 бит
    Тип развёртки : Прогрессивная
    Бит/(Пиксели*Кадры) : 0.238
    Размер потока : 160 Мбайт (99%)
    Default : Да
    Forced : Нет
    Цветовой диапазон : Limited
    Основные цвета : BT.709
    Характеристики трансфера : BT.709
    Коэффициенты матрицы : BT.709
    Аудио
    Идентификатор : 2
    Формат : AAC
    Формат/Информация : Advanced Audio Codec
    Профиль формата : LC
    Идентификатор кодека : A_AAC-2
    Продолжительность : 2 м. 30 с.
    Битрейт : 125 Кбит/сек
    Каналы : 2 канала
    Расположение каналов : Front: L R
    Частота : 44, 1 КГц
    Частота кадров : 43, 066 кадра/сек (1024 SPF)
    Метод сжатия : С потерями
    Размер потока : 2, 23 Мбайт (1%)
    Default : Да
    Forced : Нет

    Скриншоты для ознакомления



    Все одноименные релизы в Клубе
    Время раздачи: по возможности (до появления первых 3-5 скачавших)


    Онлайн видео Мстители: Война бесконечности



    Мстители: Война бесконечности/Avengers: Infinity War (2018) WEBRip [H.264/1080p] [Трейлер] [EN]
    загрузка...
    Рейтинг →
     (голосов: 1, оценка 4/5, голосовать можно 1 раз )

    Другие торренты по теме:

  • Команда «Мстители» (Сезон 1, Серия: 1-26 из 26) / Мстители, общий сбор / Marvels Avengers Assemble (2013) WEB-DLRip скачать через торрент бесплатно
  • Команда «Мстители» (Сезон 2, Серия: 1-9 из ) / Мстители, общий сбор / Marvels Avengers Assemble (2014) WEB-DLRip (Обновляемая) скачать через торрент бесплатно
  • Команда «Мстители» (Сезон 1, Серия: 1-26 из 26) / Мстители, общий сбор / Marvels Avengers Assemble (2013) WEB-DL [1080p] скачать через торрент бесплатно
  • Команда «Мстители» / Мстители, общий сбор / Marvels Avengers Assemble (2014) WEB-DL [H.264 / 1080p] (Сезон 2, Серия: 1-17 из 26) [Обновляемая] скачать через торрент бесплатно
  • Alan Silvestri - Мстители / The Avengers (Complete Motion Picture Score) (2012) [MP3|320 кб / с]<Soundtrack>
  • Мстители / The Avengers (1998) HDRip [576p] iPad
  • Мстители: Эра Альтрона / Avengers: Age of Ultron (2015) WEBRip [1080p] [Трейлер] [RUS] скачать через торрент бесплатно
  • Мстители: Эра Альтрона / The Avengers: Age of Ultron (2015) DCPRip [2K] [Hi10P] [Трейлер]


    • Комментарии (0):

      Информация

      Информация

        Посетители, находящиеся в группе Гости, не могут оставлять комментарии в данной новости.

        ↓ Меню




        ↓ Опрос

        Вы добавили сайт в закладки?
        Да
        Нет


        Top 10 за месяц (Фильмы)