.
Авторизация | Регистрация
Хочешь лучшие торренты? Добавь свой email!
Добавить

Торрент скачать бесплатно

» » Конг: Остров черепа / Kong: Skull Island (2017) UHD BDRemux [H.265 / 2160p] [4K, HDR, 10-bit] торрент скачать бесплатно




    Конг: Остров черепа / Kong: Skull Island (2017) UHD BDRemux [H.265 / 2160p] [4K, HDR, 10-bit] торрент скачать бесплатно

    Опубликовал: Админ | Дата: 2-12-2017, 05:00 | Просмотров: 0

    Производство: США/Legendary Pictures
    Жанр: фантастика, фэнтези, боевик, приключения
    Режиссер: Джордан Вот-Робертс
    Продюсер: Дэбби Босси, Edward Cheng, Jennifer Conroy

    Актеры
    Том Хиддлстон, Сэмюэл Л. Джексон, Джон Гудмен, Бри Ларсон, Тянь Цзин, Тоби Кеббелл, Джон Ортис, Кори Хоукинс, Джейсон Митчелл, Ши Уигхэм

    Описание

    На неизвестный остров в Тихом океане попадает команда ученых, военных и искателей приключений. Они вторгаются во владения могучего Конга и тем самым развязывают сражение между человеком и природой. Очень скоро исследовательская миссия превращается в игру на выживание, ее участники вынуждены буквально прорубать себе путь к спасению.

    Возраст: 16+ (зрителям, достигшим 16 лет)
    Рейтинг MPAA: PG-13 (детям до 13 лет просмотр нежелателен)
    Дата мировой премьеры: 28 февраля 2017
    Премьера (РФ): 9 марта 2017, Каро-Премьер 3D

    Релиз от: TERMiNAL, ExKinoRay
    Продолжительность: 01: 58: 23
    Качество: UHD BDRemux (HDR)
    Перевод: Дублированный (Лицензия BD EUR), Авторский (одноголосый, закадровый) (Дохалов)
    Субтитры: Русские (full, forced), английские
    Видео: HEVC/H.265, 3840x2160p, (16: 9), 52.0 Mb/s, 23.976 fps
    Аудио: AC3, 6 ch, 448 kbps - Русский, Дубляж
    Аудио: DTS-HD MA, 6 ch, 3840 kbps - Русский, Дохалов
    Аудио: TrueHD-Atmos, 8 ch, 4218 kbps - Английский
    Аудио: AC3, 6 ch, 448 kbps - Английский
    Исходный диск на Blu-ray.com
    Просмотр 4K HDR-контента на ПК
    General
    Unique ID : 189319709403110270870428623840432012808 (0x8E6DA6555FE9F27FAC06AC5DF7CEBE08)
    Complete name : G: VideoSSDKong.Skull.Island.2017.BDREMUX.2160p.4K.UltraHD.HEVC.HDR.ExKinoRay.mkv
    Format : Matroska
    Format version : Version 4/Version 2
    File size : 50.5 GiB
    Duration : 1 h 58 min
    Overall bit rate mode : Variable
    Overall bit rate : 61.1 Mb/s
    Movie name : Release by ExKinoRay
    Encoded date : UTC 2017-11-01 08: 58: 54
    Writing application : mkvmerge v17.0.0 (\'Be Ur Friend\') 64-bit
    Writing library : libebml v1.3.5 + libmatroska v1.4.8
    Cover : Yes
    Attachments : cover.jpg
    Video
    ID : 1
    Format : HEVC
    Format/Info : High Efficiency Video Coding
    Format profile : Main10@L5.1@High
    Codec ID : V_MPEGH/ISO/HEVC
    Duration : 1 h 58 min
    Bit rate : 52.0 Mb/s
    Width : 3 840 pixels
    Height : 2 160 pixels
    Display aspect ratio : 16: 9
    Frame rate mode : Constant
    Frame rate : 23.976 (24000/1001) FPS
    Color space : YUV
    Chroma subsampling : 4: 2: 0 (Type 2)
    Bit depth : 10 bits
    Bits/(Pixel*Frame) : 0.261
    Stream size : 43.0 GiB (85%)
    Writing library : ATEME Titan File 3.8.3 (4.8.3.0)
    Language : English
    Default : Yes
    Forced : No
    Color range : Limited
    Color primaries : BT.2020
    Transfer characteristics : PQ
    Matrix coefficients : BT.2020 non-constant
    Mastering display color pri : R: x=0.680000 y=0.320000, G: x=0.265000 y=0.690000, B: x=0.150000 y=0.060000, White point: x=0.312700 y=0.329000
    Mastering display luminance : min: 0.0050 cd/m2, max: 4000.0000 cd/m2
    Maximum Content Light Level : 456 cd/m2
    Maximum Frame-Average Light : 151 cd/m2
    Audio #1
    ID : 2
    Format : AC-3
    Format/Info : Audio Coding 3
    Format settings, Endianness : Big
    Codec ID : A_AC3
    Duration : 1 h 58 min
    Bit rate mode : Constant
    Bit rate : 448 kb/s
    Channel(s) : 6 channels
    Channel positions : Front: L C R, Side: L R, LFE
    Sampling rate : 48.0 kHz
    Frame rate : 31.250 FPS (1536 SPF)
    Bit depth : 16 bits
    Compression mode : Lossy
    Stream size : 379 MiB (1%)
    Title : Dub (Лицензия)
    Language : Russian
    Service kind : Complete Main
    Default : Yes
    Forced : No
    Audio #2
    ID : 3
    Format : DTS
    Format/Info : Digital Theater Systems
    Format profile : MA/Core
    Mode : 16
    Format settings, Endianness : Big
    Codec ID : A_DTS
    Duration : 1 h 58 min
    Bit rate mode : Variable/Constant
    Bit rate : 3 840 kb/s/1 509 kb/s
    Channel(s) : 6 channels
    Channel positions : Front: L C R, Side: L R, LFE
    Sampling rate : 48.0 kHz
    Frame rate : 93.750 FPS (512 SPF)
    Bit depth : 24 bits
    Compression mode : Lossless/Lossy
    Stream size : 3.23 GiB (6%)
    Title : AVO
    Language : Russian
    Default : No
    Forced : No
    Audio #3
    ID : 4
    Format : TrueHD
    Format profile : TrueHD+Atmos/TrueHD
    Codec ID : A_TRUEHD
    Duration : 1 h 58 min
    Bit rate mode : Variable
    Bit rate : 4 218 kb/s
    Maximum bit rate : 6 912 kb/s
    Channel(s) : Object Based/8 channels
    Channel positions : Object Based/Front: L C R, Side: L R, Back: L R, LFE
    Sampling rate : /48.0 kHz
    Frame rate : 1 200.000 FPS (40 SPF)
    Compression mode : Lossless
    Stream size : 3.49 GiB (7%)
    Title : Original
    Language : English
    Default : No
    Forced : No
    Audio #4
    ID : 5
    Format : AC-3
    Format/Info : Audio Coding 3
    Format settings, Endianness : Big
    Codec ID : A_AC3
    Duration : 1 h 58 min
    Bit rate mode : Constant
    Bit rate : 448 kb/s
    Channel(s) : 6 channels
    Channel positions : Front: L C R, Side: L R, LFE
    Sampling rate : 48.0 kHz
    Frame rate : 31.250 FPS (1536 SPF)
    Bit depth : 16 bits
    Compression mode : Lossy
    Stream size : 380 MiB (1%)
    Language : English
    Service kind : Complete Main
    Default : No
    Forced : No
    Text #1
    ID : 6
    Format : UTF-8
    Codec ID : S_TEXT/UTF8
    Codec ID/Info : UTF-8 Plain Text
    Duration : 1 h 57 min
    Bit rate : 3 b/s
    Count of elements : 66
    Stream size : 3.31 KiB (0%)
    Title : Forced
    Language : Russian
    Default : Yes
    Forced : No
    Text #2
    ID : 7
    Format : UTF-8
    Codec ID : S_TEXT/UTF8
    Codec ID/Info : UTF-8 Plain Text
    Duration : 1 h 57 min
    Bit rate : 76 b/s
    Count of elements : 1264
    Stream size : 65.3 KiB (0%)
    Title : Full
    Language : Russian
    Default : No
    Forced : No
    Text #3
    ID : 8
    Format : UTF-8
    Codec ID : S_TEXT/UTF8
    Codec ID/Info : UTF-8 Plain Text
    Duration : 1 h 54 min
    Bit rate : 46 b/s
    Count of elements : 974
    Stream size : 39.0 KiB (0%)
    Title : Full
    Language : English
    Default : No
    Forced : No
    Menu
    00: 00: 00.000 : en: 00: 00: 00.000
    00: 08: 54.743 : en: 00: 08: 54.743
    00: 19: 51.774 : en: 00: 19: 51.774
    00: 30: 01.133 : en: 00: 30: 01.133
    00: 40: 00.106 : en: 00: 40: 00.106
    00: 50: 13.260 : en: 00: 50: 13.260
    01: 00: 49.729 : en: 01: 00: 49.729
    01: 10: 29.600 : en: 01: 10: 29.600
    01: 18: 05.890 : en: 01: 18: 05.890
    01: 30: 12.657 : en: 01: 30: 12.657
    01: 39: 09.026 : en: 01: 39: 09.026
    01: 47: 05.836 : en: 01: 47: 05.836
    YouTube

    Скриншоты для ознакомления


    Релизы фильма Конг: Остров черепа/Kong: Skull Island на NNM Club
    Время раздачи: с 9: 00 до 23: 00


    Онлайн видео Конг: Остров черепа



    Конг: Остров черепа/Kong: Skull Island (2017) UHD BDRemux [H.265/2160p] [4K, HDR, 10-bit]
    загрузка...
    Рейтинг →
     (голосов: 1, оценка 3/5, голосовать можно 1 раз )

    Другие торренты по теме:

  • Кинг Конг: Остров черепа / Kong: Skull Island (2017) WEBRip [H.264 / 1080p] [Трейлер]
  • Конг: Остров черепа / Kong: Skull Island (2017) TS
  • Henry Jackman - Kong: Skull Island / Конг: Остров черепа (Original Motion Picture Soundtrack) (2017) [FLAC|Lossless|WEB-DL|tracks]<Soundtrack>
  • Henry Jackman - Kong: Skull Island / Конг: Остров черепа (Original Motion Picture Soundtrack) (2017) [MP3|320 кб / с]<Soundtrack>
  • VA - Kong: Skull Island / Конг: Остров черепа (Unofficial Soundtrack) (2017) [MP3|320 кб / с]<Rock, Rock & Roll, Jazz>
  • Тим Леббон | Конг: Остров черепа (2017) [FB2]
  • Конг: Остров черепа / Kong: Skull Island (2017) WEBRip [H.264 / 1080p-LQ] [Звук с TS] [AD]
  • Конг: Остров черепа / Kong: Skull Island (2017) WEBRip [H.264 / 1080p-LQ] [AD]


    • Комментарии (0):

      Информация

      Информация

        Посетители, находящиеся в группе Гости, не могут оставлять комментарии в данной новости.

        ↓ Меню




        ↓ Опрос

        Вы добавили сайт в закладки?
        Да
        Нет


        Top 10 за месяц (Фильмы)