.
Авторизация | Регистрация
Хочешь лучшие торренты? Добавь свой email!
Добавить

Торрент скачать бесплатно

» » Безумные соседи / A bras ouverts (2017) WEB-DL [H.264 / 1080p-LQ] торрент скачать бесплатно




    Безумные соседи / A bras ouverts (2017) WEB-DL [H.264 / 1080p-LQ] торрент скачать бесплатно

    Опубликовал: Админ | Дата: 2-12-2017, 05:00 | Просмотров: 0

    Производство: Франция, Бельгия
    Жанр: Комедия
    Режиссер: Филипп де Шоврон

    Актеры
    Кристиан Клавье, Эри Абиттан, Эльза Зильберштейн, Сириль Леконт, Нану Гарсия, Оскар Берт, Мирела Николау, София Мануша, Иоана Висалон, Никита Драгомир

    Описание

    В запале предвыборных дебатов рафинированный буржуа Жан-Этьен Фужероль неосторожно бросает с экрана телевизора, что его любимая Франция открыта для любых иммигрантов, они повсюду найдут себе кров и еду, даже в его доме. Не проходит и суток, как у его ворот появляется цыганский табор во главе с наглецом Бабиком. Не пустить — потерять голоса избирателей. Размеренной семейной жизни приходит конец: нежданные гости плавают в крытом бассейне, устраивают концерты во дворе, обживают хозяйский туалет, пьют коллекционные вина и даже пытаются приударить за женой Жан-Этьена.

    Возраст: 16+ (зрителям, достигшим 16 лет)
    Дата мировой премьеры: 5 апреля 2017
    Дата российской премьеры: 20 июля 2017, Cinema Prestige
    Релиз от: Rustorka, Автор рипа: and77200
    Продолжительность: 01: 28: 45
    Качество видео: WEB-DL
    Перевод: Дублированный
    Субтитры: нет
    Видео: AVC/H.264, 1920x1036, 25.000 fps, ~5150 kbps
    Аудио: AC3, 2 ch, 384 kbps

    General
    Unique ID : 223217263578800505133112434666148794906 (0xA7EE14C9B942D619BA0E3F9280D1121A)
    Complete name : E: DownloadsWith.Open.Arms.2017.WEB-DL.1080p.Rustorka.mkv
    Format : Matroska
    Format version : Version 4/Version 2
    File size : 3.43 GiB
    Duration : 1 h 28 min
    Overall bit rate : 5 527 kb/s
    Encoded date : UTC 2017-11-26 15: 08: 39
    Writing application : mkvmerge v17.0.0 (\'Be Ur Friend\') 64-bit
    Writing library : libebml v1.3.5 + libmatroska v1.4.8
    Video
    ID : 1
    Format : AVC
    Format/Info : Advanced Video Codec
    Format profile : High@L4.1
    Format settings : CABAC/4 Ref Frames
    Format settings, CABAC : Yes
    Format settings, RefFrames : 4 frames
    Codec ID : V_MPEG4/ISO/AVC
    Duration : 1 h 28 min
    Bit rate : 5 150 kb/s
    Width : 1 920 pixels
    Height : 1 036 pixels
    Display aspect ratio : 1.85: 1
    Frame rate mode : Constant
    Frame rate : 25.000 FPS
    Color space : YUV
    Chroma subsampling : 4: 2: 0
    Bit depth : 8 bits
    Scan type : Progressive
    Bits/(Pixel*Frame) : 0.104
    Stream size : 3.19 GiB (93%)
    Writing library : x264 core 152 r2851M ba24899
    Encoding settings : cabac=1/ref=4/deblock=1: -1: -1/analyse=0x3: 0x113/me=umh/subme=9/psy=1/psy_rd=1.00: 0.15/mixed_ref=1/me_range=16/chroma_me=1/trellis=1/8x8dct=1/cqm=0/deadzone=21, 11/fast_pskip=1/chroma_qp_offset=-3/threads=5/lookahead_threads=1/sliced_threads=0/nr=0/decimate=1/interlaced=0/bluray_compat=0/constrained_intra=0/bframes=5/b_pyramid=2/b_adapt=2/b_bias=0/direct=3/weightb=1/open_gop=0/weightp=2/keyint=250/keyint_min=25/scenecut=40/intra_refresh=0/rc_lookahead=40/rc=abr/mbtree=1/bitrate=5150/ratetol=1.0/qcomp=0.60/qpmin=0/qpmax=69/qpstep=4/ip_ratio=1.40/aq=1: 1.00
    Default : Yes
    Forced : No
    Audio
    ID : 2
    Format : AC-3
    Format/Info : Audio Coding 3
    Codec ID : A_AC3
    Duration : 1 h 28 min
    Bit rate mode : Constant
    Bit rate : 384 kb/s
    Channel(s) : 2 channels
    Channel positions : Front: L R
    Sampling rate : 48.0 kHz
    Frame rate : 31.250 FPS (1536 SPF)
    Bit depth : 16 bits
    Compression mode : Lossy
    Stream size : 244 MiB (7%)
    Language : Russian
    Service kind : Complete Main
    Default : Yes
    Forced : No

    Скриншоты для ознакомления



    Все одноименные релизы в Клубе
    Время раздачи: до появления первых 3-5 скачавших (до появления первых 3-5 скачавших)


    Онлайн видео Безумные соседи



    Безумные соседи/A bras ouverts (2017) WEB-DL [H.264/1080p-LQ]
    загрузка...
    Рейтинг →
     (голосов: 1, оценка 3/5, голосовать можно 1 раз )

    Другие торренты по теме:

  • Безумные соседи / A bras ouverts (2017) HDRip [MVO] [AD]
  • Безумные соседи / A bras ouverts (2017) HDRip [Line] [AD]
  • Безумные соседи / A bras ouverts (2017) HDRip
  • Безумные соседи / A bras ouverts (2017) BDRemux [H.264 / 1080p]
  • Безумные соседи / A bras ouverts (2017) BDRip [H.264 / 1080p] [PR]


    • Комментарии (0):

      Информация

      Информация

        Посетители, находящиеся в группе Гости, не могут оставлять комментарии в данной новости.

        ↓ Меню




        ↓ Опрос

        Вы добавили сайт в закладки?
        Да
        Нет


        Top 10 за месяц (Фильмы)