.
Авторизация | Регистрация
Хочешь лучшие торренты? Добавь свой email!
Добавить

Торрент скачать бесплатно

» » Жизнь впереди (2017) WEB-DLRip торрент скачать бесплатно




    Жизнь впереди (2017) WEB-DLRip торрент скачать бесплатно

    Опубликовал: Админ | Дата: 2-12-2017, 05:00 | Просмотров: 0

    Производство: Россия, Кинокомпания Kargo
    Жанр: комедия
    Режиссер: Карен Оганесян

    Актеры
    Светлана Ходченкова, Александр Паль, Павел Прилучный, Артур Смольянинов, Денис Шведов, Егор Корешков, Ольга Медынич, Максим Виторган, Валерия Кожевникова, Юлия Александрова

    Описание

    11-й Б впервые собирается вместе через 15 лет после выпуска, и эта встреча для одноклассников — удивительная возможность на короткое время вернуться в прошлое. Старые секреты и личные счеты, обиды и первая любовь оборачиваются водоворотом страстей.

    Возраст: 16+ (зрителям, достигшим 16 лет)
    Дата мировой премьеры: 6 октября 2017
    Дата российской премьеры: 5 октября 2017, Централ Партнершип
    Продолжительность: 01: 25: 05
    Качество видео: WEB-DLRip
    Перевод: Не требуется (русский) iTunes
    Субтитры: Отсутствуют
    Видео: Xvid, 688x384, ~2064 kbps
    Аудио: AC3, 6 ch, 384 kbps
    Общее
    Полное имя : D: Zhizn.vperedi.2017.WEB-DLRip.NNM-CLUB.avi
    Формат : AVI
    Формат/Информация : Audio Video Interleave
    Размер файла : 1, 46 Гбайт
    Продолжительность : 1 ч. 25 м.
    Общий поток : 2457 Кбит/сек
    Программа кодирования : VirtualDubMod 1.5.10.2 (build 2540/release)
    Библиотека кодирования : VirtualDubMod build 2540/release
    Видео
    Идентификатор : 0
    Формат : MPEG-4 Visual
    Профиль формата : Advanced Simple@L5
    Параметр BVOP формата : 1
    Параметр QPel формата : Нет
    Параметр GMC формата : Без точки перехода
    Параметр матрицы формата : Выборочная
    Идентификатор кодека : XVID
    Идентификатор кодека/Подсказка : XviD
    Продолжительность : 1 ч. 25 м.
    Битрейт : 2064 Кбит/сек
    Ширина : 688 пикселей
    Высота : 384 пикселя
    Соотношение сторон : 16: 9
    Частота кадров : 24, 000 кадра/сек
    Цветовое пространство : YUV
    Субдискретизация насыщенности : 4: 2: 0
    Битовая глубина : 8 бит
    Тип развёртки : Прогрессивная
    Метод сжатия : С потерями
    Бит/(Пиксели*Кадры) : 0.325
    Размер потока : 1, 23 Гбайт (84%)
    Библиотека кодирования : XviD 73
    Аудио
    Идентификатор : 1
    Формат : AC-3
    Формат/Информация : Audio Coding 3
    Расширение режима : CM (complete main)
    Параметр Endianness формата : Big
    Идентификатор кодека : 2000
    Продолжительность : 1 ч. 25 м.
    Вид битрейта : Постоянный
    Битрейт : 384 Кбит/сек
    Каналы : 6 каналов
    Расположение каналов : Front: L C R, Side: L R, LFE
    Частота : 48, 0 КГц
    Частота кадров : 31, 250 кадров/сек (1536 spf)
    Метод сжатия : С потерями
    Размер потока : 234 Мбайт (16%)
    Выравнивание : Разделение по промежуткам
    Продолжительность промежутка : 42 мс. (1, 00 видеокадр)
    Время предзагрузки промежутка : 500 мс.

    Скриншоты для ознакомления



    Все одноименные релизы в Клубе
    Время раздачи: 24/7 до 10 скачавших


    Онлайн видео Жизнь впереди (2017) WEB



    Жизнь впереди (2017) WEB-DLRip
    загрузка...
    Рейтинг →
     (голосов: 1, оценка 4/5, голосовать можно 1 раз )

    Другие торренты по теме:

  • Новые Самоцветы и Инна Маликова - Вся жизнь впереди (2014) [MP3|320 кб / с]<Pop> скачать через торрент бесплатно
  • Жизнь впереди (2017) WEB-DL [H.264 / 1080p-LQ]
  • Жизнь впереди (2017) WEB-DLRip [576p] iPad
  • Жизнь впереди (2017) WEB-DL [1080p] ATV
  • Жизнь впереди (2017) WEB-DLRip [H.264]


    • Комментарии (0):

      Информация

      Информация

        Посетители, находящиеся в группе Гости, не могут оставлять комментарии в данной новости.

        ↓ Меню




        ↓ Опрос

        Вы добавили сайт в закладки?
        Да
        Нет


        Top 10 за месяц (Фильмы)