.
Авторизация | Регистрация
Хочешь лучшие торренты? Добавь свой email!
Добавить

Торрент скачать бесплатно

» » Война и мир супругов Торбеевых (2017) SATRip [AD] торрент скачать бесплатно




    Война и мир супругов Торбеевых (2017) SATRip [AD] торрент скачать бесплатно

    Опубликовал: Админ | Дата: 2-12-2017, 05:00 | Просмотров: 0

    Производство: Россия
    Жанр: Мелодрама
    Режиссер: Андрей Силкин
    Продюсер: Алексей Моисеев, Олег Пиганов, Наталия Мокеева

    Актеры
    Алёна Хмельницкая, Михаил Полицеймако, Ирина Баринова, Александр Арсентьев, Анастасия Чернышова, Владимир Гуськов, Дарья Фекленко, Наталия Гаранина, Татьяна Филатова, Мария Сигал

    Описание

    Долгие годы супруги Алена и Влад Торбеевы жили счастливо. Теперь они готовятся выдать свою дочь замуж. Но, глядя на то, как светится от счастья дочь, Влад решается на отважный шаг. Он уходит от Алены к молодой любовнице Ольге. Он уверен, что жена все поймет и они разойдутся с миром. Вот только он не подозревал, что Алена отнесется к этому с искренней злобой. Она объявляет ему и Ольге настоящую войну.

    Возраст: 12+ (зрителям, достигшим 12 лет)
    Дата российской премьеры: 1 декабря 2017
    Продолжительность: 01: 37: 59
    Качество видео: SATRip
    Субтитры: Отсутствуют
    Реклама: присутствуют текстовые вставки рекламы
    Видео: Xvid, 720x400, ~1796 Kbps
    Аудио: AC3, 2 ch, 192 Kbps

    Общее
    Полное имя : J: Война и мир супругов Торбеевых.avi
    Формат : AVI
    Формат/Информация : Audio Video Interleave
    Размер файла : 1, 37 Гбайт
    Продолжительность : 1 ч. 37 м.
    Общий поток : 1998 Кбит/сек
    Программа кодирования : VirtualDubMod 1.5.10.3 (build 2550/release)
    Библиотека кодирования : VirtualDubMod build 2550/release
    Видео
    Идентификатор : 0
    Формат : MPEG-4 Visual
    Профиль формата : Advanced Simple@L5
    Параметр BVOP формата : 2
    Параметр QPel формата : Нет
    Параметр GMC формата : Без точки перехода
    Параметр матрицы формата : Default (H.263)
    Идентификатор кодека : XVID
    Идентификатор кодека/Подсказка : XviD
    Продолжительность : 1 ч. 37 м.
    Битрейт : 1796 Кбит/сек
    Ширина : 720 пикселей
    Высота : 400 пикселей
    Соотношение сторон : 16: 9
    Частота кадров : 25, 000 кадров/сек
    Цветовое пространство : YUV
    Субдискретизация насыщенности : 4: 2: 0
    Битовая глубина : 8 бит
    Тип развёртки : Прогрессивная
    Метод сжатия : С потерями
    Бит/(Пиксели*Кадры) : 0.249
    Размер потока : 1, 23 Гбайт (90%)
    Библиотека кодирования : XviD 1.2.1 (UTC 2008-12-04)
    Аудио
    Идентификатор : 1
    Формат : AC-3
    Формат/Информация : Audio Coding 3
    Параметр Endianness формата : Big
    Идентификатор кодека : 2000
    Продолжительность : 1 ч. 37 м.
    Вид битрейта : Постоянный
    Битрейт : 192 Кбит/сек
    Каналы : 2 канала
    Расположение каналов : Front: L R
    Частота : 48, 0 КГц
    Частота кадров : 31, 250 кадров/сек (1536 SPF)
    Битовая глубина : 16 бит
    Метод сжатия : С потерями
    Размер потока : 135 Мбайт (10%)
    Выравнивание : Разделение по промежуткам
    Продолжительность промежутка : 40 мс. (1, 00 видеокадр)
    Время предзагрузки промежутка : 500 мс.
    ServiceKind/String : Complete Main

    Скриншоты для ознакомления



    Все одноименные релизы в Клубе
    Время раздачи: с 09: 00 до 23: 30 (до появления первых 3-5 скачавших)


    Онлайн видео Из Уфы с любовью (2017) WEB-DLRip [H.264



    Война и мир супругов Торбеевых (2017) SATRip [AD]
    загрузка...
    Рейтинг →
     (голосов: 1, оценка 3/5, голосовать можно 1 раз )

    Другие торренты по теме:

  • В. С. Махалов, А. В. Бешенцев (ред.) | Война, история, идеология [Буржуазная военная история на службе милитаризма] (1974) [DJVU]
  • 60 минут. Война нервов, война фальшивок (12.10.2016) SATRip
  • Апокалипсис: Первая мировая война (1-2 серия из 5) / Apocalypse: World War I (2014) HDTV [H.264 / 1080i] (Обновляемая)
  • Апокалипсис: Первая мировая война (1-2 серия из 5) / Apocalypse: World War I (2014) HDTVRip (Обновляемая)
  • Апокалипсис: Первая мировая война (1-2 серия из 5) / Apocalypse: World War I (2014) HDTVRip [H.264 / 720p-LQ] (Обновляемая)
  • Великая война. Серия 2. Власть машин (2014.09.21) SATRip
  • Великая война. Серия 3. Власть идей (2014.09.28) SATRip
  • Василий Головачев | Война HAARP (2014) [MP3]


    • Комментарии (0):

      Информация

      Информация

        Посетители, находящиеся в группе Гости, не могут оставлять комментарии в данной новости.

        ↓ Меню




        ↓ Опрос

        Вы добавили сайт в закладки?
        Да
        Нет


        Top 10 за месяц (Фильмы)