.
Авторизация | Регистрация
Хочешь лучшие торренты? Добавь свой email!
Добавить

Торрент скачать бесплатно

» » Из Уфы с любовью (2017) WEB-DLRip [H.264 / 1080p-LQ] торрент скачать бесплатно




    Из Уфы с любовью (2017) WEB-DLRip [H.264 / 1080p-LQ] торрент скачать бесплатно

    Опубликовал: Админ | Дата: 2-12-2017, 05:00 | Просмотров: 0

    Производство: Россия/киностудия Башкорстан
    Жанр: Комедия
    Режиссер: Айнур Аскаров

    Актеры
    Азат Зиганшин, Алмас Амиров, Анастасия Речистер, Аскар Нагаев, Ахат Хусаинов, Гульмира Исмагилова, Данил Гуфранов, Зульхиза Галикиева, Идель Аралбаев, Ильсияр Газетдинова ...

    Описание

    Крепкий дом, любимая жена, куча детишек — вот как видит свою идеальную жизнь простой парень из глубинки. Укусив, по традиции, свою суженую за ухо, когда ему было 5 лет, герой считал, что счастье у него в кармане. Но когда он после службы в армии возвращается домой, его мечта разбивается вдребезги. Невеста бросает его ради столичного мажора. Но самое страшное — она продала обручальное кольцо, этого его семейный клан не простит. Чёрт с ней, с невестой, — решает герой, — надо найти главную ценность семьи.

    Возраст: 12+ (зрителям, достигшим 12 лет)
    Дата премьеры в России: 3 августа 2017
    Продолжительность: 01: 30: 56
    Качество видео: WEB-DLRip
    Перевод: Не требуется (русский)
    Субтитры: Русские (на башкирскую речь)
    Видео: AVC, 1920x798 (2.40: 1), 25.000 fps, 5 120 Kbps (0.134 bit/pixel)
    Аудио: AC-3, 48.0 KHz, 2 ch, 256 Kbps, CBR

    Общее
    Уникальный идентификатор : 209020141484166980571407585458230660035 (0x9D3FD0A05479C10FAE771D1974000BC3)
    Полное имя : D: NNMИз Уфы с любовьюIz Ufy s lubovju 2017 WEB-DL 1080p-LQ.mkv
    Формат : Matroska
    Версия формата : Version 4/Version 2
    Размер файла : 3, 37 Гбайт
    Продолжительность : 1 ч. 30 м.
    Общий поток : 5302 Кбит/сек
    Дата кодирования : UTC 2017-12-01 08: 39: 21
    Программа кодирования : mkvmerge v17.0.0 (\'Be Ur Friend\') 64-bit
    Библиотека кодирования : libebml v1.3.5 + libmatroska v1.4.8
    Видео
    Идентификатор : 2
    Формат : AVC
    Формат/Информация : Advanced Video Codec
    Профиль формата : High@L4
    Параметр CABAC формата : Да
    Параметр RefFrames формата : 4 кадра
    Идентификатор кодека : V_MPEG4/ISO/AVC
    Продолжительность : 1 ч. 30 м.
    Битрейт : 5120 Кбит/сек
    Ширина : 1920 пикселей
    Высота : 798 пикселей
    Соотношение сторон : 2, 40: 1
    Режим частоты кадров : Постоянный
    Частота кадров : 25, 000 кадров/сек
    Цветовое пространство : YUV
    Субдискретизация насыщенности : 4: 2: 0
    Битовая глубина : 8 бит
    Тип развёртки : Прогрессивная
    Бит/(Пиксели*Кадры) : 0.134
    Размер потока : 3, 20 Гбайт (95%)
    Заголовок : WEB-DLRip by Silverok
    Библиотека кодирования : x264 core 142
    Настройки программы : cabac=1/ref=8/deblock=1: 0: 0/analyse=0x3: 0x113/me=hex/subme=7/psy=1/psy_rd=1.00: 0.00/mixed_ref=1/me_range=16/chroma_me=1/trellis=1/8x8dct=1/cqm=0/deadzone=21, 11/fast_pskip=1/chroma_qp_offset=-2/threads=108/lookahead_threads=6/sliced_threads=0/nr=0/decimate=1/interlaced=0/bluray_compat=0/constrained_intra=0/bframes=6/b_pyramid=2/b_adapt=1/b_bias=0/direct=1/weightb=1/open_gop=0/weightp=2/keyint=50/keyint_min=26/scenecut=0/intra_refresh=0/rc_lookahead=40/rc=2pass/mbtree=1/bitrate=5120/ratetol=1.0/qcomp=0.60/qpmin=0/qpmax=69/qpstep=4/cplxblur=20.0/qblur=0.5/vbv_maxrate=7680/vbv_bufsize=20480/nal_hrd=none/filler=0/ip_ratio=1.40/aq=1: 1.00
    Default : Да
    Forced : Нет
    Аудио
    Идентификатор : 1
    Формат : AC-3
    Формат/Информация : Audio Coding 3
    Параметр Endianness формата : Big
    Идентификатор кодека : A_AC3
    Продолжительность : 1 ч. 30 м.
    Вид битрейта : Постоянный
    Битрейт : 256 Кбит/сек
    Каналы : 2 канала
    Расположение каналов : Front: L R
    Частота : 48, 0 КГц
    Частота кадров : 31, 250 кадров/сек (1536 SPF)
    Битовая глубина : 16 бит
    Метод сжатия : С потерями
    Размер потока : 167 Мбайт (5%)
    Язык : Russian
    ServiceKind/String : Complete Main
    Default : Да
    Forced : Нет

    Скриншоты для ознакомления



    Все одноименные релизы в Клубе Время раздачи: Круглосуточно до 10 скачавших


    Онлайн видео Из Уфы с любовью (2017) WEB-DLRip [H.264



    Из Уфы с любовью (2017) WEB-DLRip [H.264/1080p-LQ]
    загрузка...
    Рейтинг →
     (голосов: 1, оценка 3/5, голосовать можно 1 раз )

    Другие торренты по теме:

  • Как заниматься любовью по-английски / How to Make Love Like an Englishman (2014) WEB-DLRip скачать через торрент бесплатно
  • Как заниматься любовью по-английски / How to Make Love Like an Englishman (2014) WEB-DLRip скачать через торрент бесплатно
  • Из Уфы с любовью (2017) WEB-DLRip
  • С любовью, Рози / Love, Rosie (2014) WEB-DLRip [Звук с TS]
  • С любовью, Рози / Love, Rosie (2014) WEB-DLRip [VO]
  • Как заниматься любовью по-английски / How to Make Love Like an Englishman (2014) WEB-DLRip [Line] скачать через торрент бесплатно
  • Из Уфы с любовью (2017) WEB-DLRip [H.264 / 720p-LQ]


    • Комментарии (0):

      Информация

      Информация

        Посетители, находящиеся в группе Гости, не могут оставлять комментарии в данной новости.

        ↓ Меню




        ↓ Опрос

        Вы добавили сайт в закладки?
        Да
        Нет


        Top 10 за месяц (Фильмы)