.
Авторизация | Регистрация
Хочешь лучшие торренты? Добавь свой email!
Добавить

Торрент скачать бесплатно

» » Из Уфы с любовью (2017) WEB-DLRip торрент скачать бесплатно




    Из Уфы с любовью (2017) WEB-DLRip торрент скачать бесплатно

    Опубликовал: Админ | Дата: 2-12-2017, 05:00 | Просмотров: 0

    Производство: Россия/киностудия Башкорстан
    Жанр: Комедия
    Режиссер: Айнур Аскаров

    Актеры
    Азат Зиганшин, Алмас Амиров, Анастасия Речистер, Аскар Нагаев, Ахат Хусаинов, Гульмира Исмагилова, Данил Гуфранов, Зульхиза Галикиева, Идель Аралбаев, Ильсияр Газетдинова ...

    Описание

    Крепкий дом, любимая жена, куча детишек — вот как видит свою идеальную жизнь простой парень из глубинки. Укусив, по традиции, свою суженую за ухо, когда ему было 5 лет, герой считал, что счастье у него в кармане. Но когда он после службы в армии возвращается домой, его мечта разбивается вдребезги. Невеста бросает его ради столичного мажора. Но самое страшное — она продала обручальное кольцо, этого его семейный клан не простит. Чёрт с ней, с невестой, — решает герой, — надо найти главную ценность семьи.

    Возраст: 12+ (зрителям, достигшим 12 лет)
    Дата премьеры в России: 3 августа 2017
    Продолжительность: 01: 30: 56
    Качество видео: WEB-DLRip
    Перевод: Не требуется (русский)
    Субтитры: Русские (на башкирскую речь)
    Видео: MPEG4, XviD, 720x288 (2.500), 25.000 fps, 1 955 Kbps (0.377 bit/pixel)
    Аудио: AC-3, 48.0 KHz, 2 ch, 192 Kbps, CBR

    Общее
    Полное имя : D: NNMИз Уфы с любовьюIz Ufy s lubovju 2017 WEB-DLRip.avi
    Формат : AVI
    Формат/Информация : Audio Video Interleave
    Размер файла : 1, 37 Гбайт
    Продолжительность : 1 ч. 30 м.
    Общий поток : 2157 Кбит/сек
    Программа кодирования : VirtualDubMod 1.5.10.3 |www.virtualdub-fr.org|| (build 2550/release)
    Библиотека кодирования : VirtualDubMod build 2550/release
    Видео
    Идентификатор : 0
    Формат : MPEG-4 Visual
    Профиль формата : Advanced Simple@L5
    Параметр BVOP формата : 1
    Параметр QPel формата : Нет
    Параметр GMC формата : Без точки перехода
    Параметр матрицы формата : Выборочная
    Идентификатор кодека : XVID
    Идентификатор кодека/Подсказка : XviD
    Продолжительность : 1 ч. 30 м.
    Битрейт : 1955 Кбит/сек
    Ширина : 720 пикселей
    Высота : 288 пикселей
    Соотношение сторон : 2, 500
    Частота кадров : 25, 000 кадров/сек
    Цветовое пространство : YUV
    Субдискретизация насыщенности : 4: 2: 0
    Битовая глубина : 8 бит
    Тип развёртки : Прогрессивная
    Метод сжатия : С потерями
    Бит/(Пиксели*Кадры) : 0.377
    Размер потока : 1, 24 Гбайт (91%)
    Библиотека кодирования : XviD 73
    Аудио
    Идентификатор : 1
    Формат : AC-3
    Формат/Информация : Audio Coding 3
    Параметр Endianness формата : Big
    Идентификатор кодека : 2000
    Продолжительность : 1 ч. 30 м.
    Вид битрейта : Постоянный
    Битрейт : 192 Кбит/сек
    Каналы : 2 канала
    Расположение каналов : Front: L R
    Частота : 48, 0 КГц
    Частота кадров : 31, 250 кадров/сек (1536 SPF)
    Битовая глубина : 16 бит
    Метод сжатия : С потерями
    Размер потока : 125 Мбайт (9%)
    Выравнивание : Разделение по промежуткам
    Продолжительность промежутка : 40 мс. (1, 00 видеокадр)
    Время предзагрузки промежутка : 500 мс.
    ServiceKind/String : Complete Main

    Скриншоты для ознакомления



    Все одноименные релизы в Клубе Время раздачи: Круглосуточно до 10 скачавших


    Онлайн видео Из Уфы с любовью (2017) WEB



    Из Уфы с любовью (2017) WEB-DLRip
    загрузка...
    Рейтинг →
     (голосов: 1, оценка 5/5, голосовать можно 1 раз )

    Другие торренты по теме:

  • Как заниматься любовью по-английски / How to Make Love Like an Englishman (2014) WEB-DLRip скачать через торрент бесплатно
  • Как заниматься любовью по-английски / How to Make Love Like an Englishman (2014) WEB-DLRip скачать через торрент бесплатно
  • С любовью, Рози / Love, Rosie (2014) WEB-DLRip [Звук с TS]
  • С любовью, Рози / Love, Rosie (2014) WEB-DLRip [VO]
  • Как заниматься любовью по-английски / How to Make Love Like an Englishman (2014) WEB-DLRip [Line] скачать через торрент бесплатно
  • Из Уфы с любовью (2017) WEB-DLRip [H.264 / 1080p-LQ]


    • Комментарии (0):

      Информация

      Информация

        Посетители, находящиеся в группе Гости, не могут оставлять комментарии в данной новости.

        ↓ Меню




        ↓ Опрос

        Вы добавили сайт в закладки?
        Да
        Нет


        Top 10 за месяц (Фильмы)