.
Авторизация | Регистрация
Хочешь лучшие торренты? Добавь свой email!
Добавить

Торрент скачать бесплатно

» » Небесный охотник / Kong tian lie (2017) WEB-DLRip [MVO] [AD] торрент скачать бесплатно




    Небесный охотник / Kong tian lie (2017) WEB-DLRip [MVO] [AD] торрент скачать бесплатно

    Опубликовал: Админ | Дата: 2-12-2017, 05:00 | Просмотров: 0

    Производство: Китай/Chunquhi Time Culture Fims
    Жанр: Драма, боевик
    Режиссер: Ли Чэнь

    Актеры
    Ли Чэнь, Бинбин Фань, Ван Цаньюань, Пол Аллисия, Джордж Кристофер, Леон Ли, Ли Цзяхан ...

    Описание

    Элитный отряд пилотов, состоящий только из асов, противостоит террористам.

    Дата мировой премьеры: 29 сентября 2017
    Продолжительность: 01: 53: 23
    Качество видео: WEB-DLRip
    Перевод: Любительский многоголосый (КОЛОБОК)
    Субтитры: Английские, китайские (хардсаб)
    Реклама: Присутствуют вставки текстовой рекламы!
    Видео: MPEG4, XviD, 720x304 (2.35: 1), 23.976 fps, 1 581 Kbps (0.301 bit/pixel)
    Аудио: AC-3, 48.0 KHz, 2 ch, 192 Kbps, CBR

    Общее
    Полное имя : D: NNMНебесный охотникNebesnyj ohotnik 2017 WEB-DLRip.avi
    Формат : AVI
    Формат/Информация : Audio Video Interleave
    Профиль формата : OpenDML
    Размер файла : 1, 41 Гбайт
    Продолжительность : 1 ч. 53 м.
    Общий поток : 1785 Кбит/сек
    Видео
    Идентификатор : 0
    Формат : MPEG-4 Visual
    Профиль формата : Advanced Simple@L5
    Параметр BVOP формата : 2
    Параметр QPel формата : Нет
    Параметр GMC формата : Без точки перехода
    Параметр матрицы формата : Default (MPEG)
    Идентификатор кодека : XVID
    Идентификатор кодека/Подсказка : XviD
    Продолжительность : 1 ч. 53 м.
    Битрейт : 1581 Кбит/сек
    Ширина : 720 пикселей
    Высота : 304 пикселя
    Соотношение сторон : 2, 35: 1
    Частота кадров : 23, 976 (24000/1001) кадра/сек
    Цветовое пространство : YUV
    Субдискретизация насыщенности : 4: 2: 0
    Битовая глубина : 8 бит
    Тип развёртки : Прогрессивная
    Метод сжатия : С потерями
    Бит/(Пиксели*Кадры) : 0.301
    Размер потока : 1, 25 Гбайт (89%)
    Библиотека кодирования : XviD 1.2.1 (UTC 2008-12-04)
    Аудио
    Идентификатор : 1
    Формат : AC-3
    Формат/Информация : Audio Coding 3
    Параметр Endianness формата : Big
    Идентификатор кодека : 2000
    Продолжительность : 1 ч. 53 м.
    Вид битрейта : Постоянный
    Битрейт : 192 Кбит/сек
    Каналы : 2 канала
    Расположение каналов : Front: L R
    Частота : 48, 0 КГц
    Частота кадров : 31, 250 кадров/сек (1536 SPF)
    Битовая глубина : 16 бит
    Метод сжатия : С потерями
    Размер потока : 156 Мбайт (11%)
    Выравнивание : Соединение по промежуткам
    Продолжительность промежутка : 32 мс. (0, 77 видеокадр)
    ServiceKind/String : Complete Main

    Скриншоты для ознакомления



    Все одноименные релизы в Клубе Время раздачи: Круглосуточно до 10 скачавших


    Онлайн видео Небесный охотник



    Небесный охотник/Kong tian lie (2017) WEB-DLRip [MVO] [AD]
    загрузка...
    Рейтинг →
     (голосов: 1, оценка 3/5, голосовать можно 1 раз )

    Другие торренты по теме:

  • Небесный замок Лапута / Dama Laputa: The Castle in the Sky / Tenkû no shiro Rapyuta (1986) BDRip [576p] iPad
  • Легендарные самолеты. Ил-76. Небесный грузовик (2014) SATRip скачать через торрент бесплатно
  • Олеся Николаева | Небесный огонь и другие рассказы (2012) [FB2]
  • Святитель Серафим Звездинский | Хлеб небесный (1996) [PDF, FB2, EPUB] скачать через торрент бесплатно
  • Небесный суд. Продолжение (2014) SATRip [Сезон 2, серии 1 из 4] (обновляемая)
  • Soukyuu no Fafner: Dead Aggressor - Exodus | Небесный Фафнир: Исход [2015, TV, 1 из 26 эп.] HDTVRip 720p raw скачать через торрент бесплатно
  • Небесный замок Лапута / Laputa: The Castle in the Sky (1986) BDRip [720p] ATV
  • Небесный меч / Heavenly Sword (2014) WEB-DL [1080p] [VO] скачать через торрент бесплатно


    • Комментарии (0):

      Информация

      Информация

        Посетители, находящиеся в группе Гости, не могут оставлять комментарии в данной новости.

        ↓ Меню




        ↓ Опрос

        Вы добавили сайт в закладки?
        Да
        Нет


        Top 10 за месяц (Фильмы)