.
Авторизация | Регистрация
Хочешь лучшие торренты? Добавь свой email!
Добавить

Торрент скачать бесплатно

» » Рождественский поезд / The Christmas Train (2017) HDTVRip [MVO] [AD] торрент скачать бесплатно




    Рождественский поезд / The Christmas Train (2017) HDTVRip [MVO] [AD] торрент скачать бесплатно

    Опубликовал: Админ | Дата: 2-12-2017, 05:00 | Просмотров: 0

    Производство: США/Front Street Pictures
    Жанр: Драма, мелодрама
    Режиссер: Рон Оливер

    Актеры
    Дермот Малруни, Кимберли Уильямс, Дэнни Гловер, Холли Элисса, Джоан Кьюсак, Кирстен Праут, Энтони Конечни, Джилл Тид, Карен Холнесс, Теренс Келли

    Описание

    За несколько дней до Рождества бывший военный журналист Том отправляется из Вашингтона в Лос-Анджелес, причем выбирает для этого весьма необычный вид транспорта - поезд. Том делает этот выбор не случайно: в память о своем отце он хочет написать книгу и решает искать вдохновение именно там. Но судьба преподносит ему сюрприз: в этом Рождественском поезде он находит не только вдохновение, но и нечто большее.

    Дата мировой премьеры: 25 ноября 2017
    Продолжительность: 01: 37: 30
    Качество видео: HDTVRip
    Перевод: Профессиональный многоголосый (Синема УС)
    Субтитры: Отсутствуют
    Реклама: Присутствуют вставки текстовой рекламы!
    Видео: MPEG4, XviD, 720x400 (16: 9), 23.976 fps, 1 540 Kbps (0.223 bit/pixel)
    Аудио: AC-3, 48.0 KHz, 2 ch, 384 Kbps, CBR

    Общее
    Полное имя : D: NNMРождественский поездRozhdestvenskij poezd 2017 HDTVRip.avi
    Формат : AVI
    Формат/Информация : Audio Video Interleave
    Профиль формата : OpenDML
    Размер файла : 1, 32 Гбайт
    Продолжительность : 1 ч. 37 м.
    Общий поток : 1937 Кбит/сек
    Видео
    Идентификатор : 0
    Формат : MPEG-4 Visual
    Профиль формата : Advanced Simple@L5
    Параметр BVOP формата : 2
    Параметр QPel формата : Нет
    Параметр GMC формата : Без точки перехода
    Параметр матрицы формата : Default (MPEG)
    Идентификатор кодека : XVID
    Идентификатор кодека/Подсказка : XviD
    Продолжительность : 1 ч. 37 м.
    Битрейт : 1540 Кбит/сек
    Ширина : 720 пикселей
    Высота : 400 пикселей
    Соотношение сторон : 16: 9
    Частота кадров : 23, 976 (24000/1001) кадра/сек
    Цветовое пространство : YUV
    Субдискретизация насыщенности : 4: 2: 0
    Битовая глубина : 8 бит
    Тип развёртки : Прогрессивная
    Метод сжатия : С потерями
    Бит/(Пиксели*Кадры) : 0.223
    Размер потока : 1, 05 Гбайт (80%)
    Библиотека кодирования : XviD 1.2.1 (UTC 2008-12-04)
    Аудио
    Идентификатор : 1
    Формат : AC-3
    Формат/Информация : Audio Coding 3
    Параметр Endianness формата : Big
    Идентификатор кодека : 2000
    Продолжительность : 1 ч. 37 м.
    Вид битрейта : Постоянный
    Битрейт : 384 Кбит/сек
    Каналы : 2 канала
    Расположение каналов : Front: L R
    Частота : 48, 0 КГц
    Частота кадров : 31, 250 кадров/сек (1536 SPF)
    Битовая глубина : 16 бит
    Метод сжатия : С потерями
    Размер потока : 268 Мбайт (20%)
    Выравнивание : Соединение по промежуткам
    Продолжительность промежутка : 32 мс. (0, 77 видеокадр)
    ServiceKind/String : Complete Main

    Скриншоты для ознакомления



    Все одноименные релизы в Клубе Время раздачи: Круглосуточно до 10 скачавших


    Онлайн видео Рождественский поезд



    Рождественский поезд/The Christmas Train (2017) HDTVRip [MVO] [AD]
    загрузка...
    Рейтинг →
     (голосов: 1, оценка 5/5, голосовать можно 1 раз )

    Другие торренты по теме:

  • Рождественский пирог / La buche (1999) DVDRip
  • Скрудж - Рождественский гимн / Scrooge - A Christmas Carol (1951) DVDRip [H.264] [Цветная версия] скачать через торрент бесплатно
  • Приключения Бэйли: Рождественский герой / Adventures of Bailey: Christmas Hero (2012) HDTVRip [H.264 / 1080p-LQ] скачать через торрент бесплатно
  • Коди Гудфеллоу и др. | Рождественский Ужас. Часть первая (2016) [MP3]
  • Доктор Кто: Мужья Ривер Сонг (Рождественский спецвыпуск) / Doctor Who: The Husbands of River Song (Christmas Special) (2015) BDRemux [H.264 / 1080p] BaibaKo, Jaskier
  • Рождественский жеребенок / The Christmas Colt (2013) DVB
  • Оркестр Большого Театра, Дирижер Геннадий Рождественский - Петр Ильич Чайковский, Щелкунчик (1960) 2CD, 1999 Мелодия [FLAC|Lossless|tracks + .cue] <ballet>
  • Петр Ильич Чайковский - Щелкунчик (Оркестр Большого Театра, Дирижер Геннадий Рождественский) (1960) [MP3|320 кб / с] <Ballet>


    • Комментарии (0):

      Информация

      Информация

        Посетители, находящиеся в группе Гости, не могут оставлять комментарии в данной новости.

        ↓ Меню




        ↓ Опрос

        Вы добавили сайт в закладки?
        Да
        Нет


        Top 10 за месяц (Фильмы)