.
Авторизация | Регистрация
Хочешь лучшие торренты? Добавь свой email!
Добавить

Торрент скачать бесплатно

» » Kingsman: Золотое кольцо / Kingsman: The Golden Circle (2017) HDRip [Line] [AD] торрент скачать бесплатно




    Kingsman: Золотое кольцо / Kingsman: The Golden Circle (2017) HDRip [Line] [AD] торрент скачать бесплатно

    Опубликовал: Админ | Дата: 2-12-2017, 05:00 | Просмотров: 0

    Производство: Великобритания, США/20th Century Fox Film Corporation, Marv Films, Shangri-La Entertainment, TSG Entertainment
    Жанр: Боевик, Комедия, Приключения
    Режиссер: Мэттью Вон
    Продюсер: Адам Болинг, Дэвид Рейд, Мэттью Вон

    Актеры
    Тэрон Эджертон, Колин Фёрт, Марк Стронг, Джулианна Мур, Холли Берри, Педро Паскаль, Ченнинг Татум, Джефф Бриджес, Эдвард Холкрофт, Ханна Альстрём

    Описание

    Когда штаб-квартиры секретной службы Kingsman уничтожены, и весь мир оказался в заложниках у неизвестных, британские суперагенты обнаруживают, что в один день вместе с их организацией была еще создана американская разведка — Statesman. Теперь эти две элитные спецслужбы должны объединиться и бросить вызов общему безжалостному врагу, чтобы спасти мир, то есть заняться тем, что для Эггси становится обычным делом.

    Возраст: 18+ (зрителям, достигшим 18 лет. запрещено для детей)
    Рейтинг MPAA: R (лицам до 17 лет обязательно присутствие взрослого)
    Дата мировой премьеры: 20 сентября 2017
    Дата российской премьеры: 21 сентября 2017, Двадцатый Век Фокс СНГ
    Продолжительность: 02: 21: 02
    Качество видео: HDRip
    Перевод: Дублированный (Line)
    Субтитры: Отсутствуют
    Реклама: Присутствует вставка видео, голосовой и текстовой рекламы
    (одна вставка видео вырезана, одна осталась)
    Видео: Xvid, 720x304, ~1267 Kbps
    Аудио: AC3, 2 ch, 192 Kbps

    Общее
    Полное имя : D: ВидеоtorrrentKingsman.The.Golden.Circle.2017.D.HDRip.1.46Gb.avi
    Формат : AVI
    Формат/Информация : Audio Video Interleave
    Размер файла : 1, 45 Гбайт
    Продолжительность : 2 ч. 21 м.
    Общий поток : 1470 Кбит/сек
    Видео
    Идентификатор : 0
    Формат : MPEG-4 Visual
    Профиль формата : Advanced Simple@L5
    Параметр BVOP формата : 2
    Параметр QPel формата : Нет
    Параметр GMC формата : Без точки перехода
    Параметр матрицы формата : Default (MPEG)
    Идентификатор кодека : XVID
    Идентификатор кодека/Подсказка : XviD
    Продолжительность : 2 ч. 21 м.
    Битрейт : 1267 Кбит/сек
    Ширина : 720 пикселей
    Высота : 304 пикселя
    Соотношение сторон : 2, 35: 1
    Частота кадров : 23, 976 (24000/1001) кадра/сек
    Цветовое пространство : YUV
    Субдискретизация насыщенности : 4: 2: 0
    Битовая глубина : 8 бит
    Тип развёртки : Прогрессивная
    Метод сжатия : С потерями
    Бит/(Пиксели*Кадры) : 0.241
    Размер потока : 1, 25 Гбайт (86%)
    Библиотека кодирования : XviD 1.2.1 (UTC 2008-12-04)
    Аудио
    Идентификатор : 1
    Формат : AC-3
    Формат/Информация : Audio Coding 3
    Параметр Endianness формата : Big
    Идентификатор кодека : 2000
    Продолжительность : 2 ч. 21 м.
    Вид битрейта : Постоянный
    Битрейт : 192 Кбит/сек
    Каналы : 2 канала
    Расположение каналов : Front: L R
    Частота : 48, 0 КГц
    Частота кадров : 31, 250 кадров/сек (1536 SPF)
    Битовая глубина : 16 бит
    Метод сжатия : С потерями
    Задержка видео : 32 мс.
    Размер потока : 194 Мбайт (13%)
    Выравнивание : Разделение по промежуткам
    Продолжительность промежутка : 32 мс. (0, 77 видеокадр)
    ServiceKind/String : Complete Main

    Скриншоты для ознакомления



    Все одноименные релизы в Клубе
    Время раздачи: 24/7 (до появления первых 3-5 скачавших)


    Онлайн видео Kingsman: Золотое кольцо



    Kingsman: Золотое кольцо/Kingsman: The Golden Circle (2017) HDRip [Line] [AD]
    загрузка...
    Рейтинг →
     (голосов: 1, оценка 3/5, голосовать можно 1 раз )

    Другие торренты по теме:

  • Kingsman: Золотое кольцо / Kingsman: The Golden Circle (2017) TS [H.264 / 720p-LQ] [AD]
  • Kingsman: Золотое кольцо / Kingsman: The Golden Circle (2017) WEB-DLRip [Звук с ТS] [AD]
  • Kingsman: Золотое кольцо / Kingsman: The Golden Circle (2017) WEB-DLRip [H.264 / 1080p-LQ] [Звук с TS] [AD]
  • Kingsman: Золотое кольцо / Kingsman: The Golden Circle (2017) WEB-DL [H.264 / 1080p-LQ] [EN / EN Sub]
  • Kingsman: Золотое кольцо / Kingsman: The Golden Circle (2017) WEB-DLRip [H.264] [MVO] [AD]
  • Kingsman: Золотое кольцо / Kingsman: The Golden Circle (2017) WEB-DLRip [MVO] [AD]
  • Kingsman: Золотое кольцо / Kingsman: The Golden Circle (2017) WEB-DLRip [MVO] [AD]
  • Kingsman: Золотое кольцо / Kingsman: The Golden Circle (2017) WEB-DLRip [H.264 / 1080p-LQ] [MVO] [AD]


    • Комментарии (0):

      Информация

      Информация

        Посетители, находящиеся в группе Гости, не могут оставлять комментарии в данной новости.

        ↓ Меню




        ↓ Опрос

        Вы добавили сайт в закладки?
        Да
        Нет


        Top 10 за месяц (Фильмы)