.
Авторизация | Регистрация
Хочешь лучшие торренты? Добавь свой email!
Добавить

Торрент скачать бесплатно

» » Шанс на Рождество / A Bramble House Christmas (2017) HDTVRip [MVO] [AD] торрент скачать бесплатно




    Шанс на Рождество / A Bramble House Christmas (2017) HDTVRip [MVO] [AD] торрент скачать бесплатно

    Опубликовал: Админ | Дата: 2-12-2017, 05:00 | Просмотров: 0

    Производство: Канада/4 Ever Christmas Productions
    Жанр: Драма
    Режиссер: Стивен Р. Монро

    Актеры
    Отем Ризер, Дэвид Джонс, Лиэм Хьюз, Терил Ротери, Эндрю Эйрли, Брюс Доусон, Хилари Джардин, Джулия Андерсон, Линда Марлоу, Джини Клотье

    Описание

    В Рождество мы все вспоминаем, что мечты сбываются. В этом убедилась и Уиллла, когда ей выпала возможность уехать с сыном на каникулы в волшебный Брембл. Однако на пути к мечте не без препятствий, и в данном случае этим препятствием становится Фин, желающий разоблачить Уиллу и доказать всем, что она мошенница.

    Дата мировой премьеры: 19 ноября 2017
    Продолжительность: 01: 22: 08
    Качество видео: HDTVRip
    Перевод: Профессиональный многоголосый (Синема УС)
    Субтитры: Отсутствуют
    Реклама: Присутствуют вставки текстовой рекламы!
    Видео: MPEG4, XviD, 720x400 (16: 9), 23.976 fps, 1 886 Kbps (0.273 bit/pixel)
    Аудио: AC-3, 48.0 KHz, 2 ch, 384 Kbps, CBR

    Общее
    Полное имя : D: NNMШанс на РождествоShans na rozhdestvo 2017 HDTVRip.avi
    Формат : AVI
    Формат/Информация : Audio Video Interleave
    Профиль формата : OpenDML
    Размер файла : 1, 31 Гбайт
    Продолжительность : 1 ч. 22 м.
    Общий поток : 2282 Кбит/сек
    Видео
    Идентификатор : 0
    Формат : MPEG-4 Visual
    Профиль формата : Advanced Simple@L5
    Параметр BVOP формата : 2
    Параметр QPel формата : Нет
    Параметр GMC формата : Без точки перехода
    Параметр матрицы формата : Default (MPEG)
    Идентификатор кодека : XVID
    Идентификатор кодека/Подсказка : XviD
    Продолжительность : 1 ч. 22 м.
    Битрейт : 1886 Кбит/сек
    Ширина : 720 пикселей
    Высота : 400 пикселей
    Соотношение сторон : 16: 9
    Частота кадров : 23, 976 (24000/1001) кадра/сек
    Цветовое пространство : YUV
    Субдискретизация насыщенности : 4: 2: 0
    Битовая глубина : 8 бит
    Тип развёртки : Прогрессивная
    Метод сжатия : С потерями
    Бит/(Пиксели*Кадры) : 0.273
    Размер потока : 1, 08 Гбайт (83%)
    Библиотека кодирования : XviD 1.2.1 (UTC 2008-12-04)
    Аудио
    Идентификатор : 1
    Формат : AC-3
    Формат/Информация : Audio Coding 3
    Параметр Endianness формата : Big
    Идентификатор кодека : 2000
    Продолжительность : 1 ч. 22 м.
    Вид битрейта : Постоянный
    Битрейт : 384 Кбит/сек
    Каналы : 2 канала
    Расположение каналов : Front: L R
    Частота : 48, 0 КГц
    Частота кадров : 31, 250 кадров/сек (1536 SPF)
    Битовая глубина : 16 бит
    Метод сжатия : С потерями
    Размер потока : 226 Мбайт (17%)
    Выравнивание : Соединение по промежуткам
    Продолжительность промежутка : 32 мс. (0, 77 видеокадр)
    ServiceKind/String : Complete Main

    Скриншоты для ознакомления



    Все одноименные релизы в Клубе Время раздачи: Круглосуточно до 10 скачавших


    Онлайн видео Шанс на Рождество



    Шанс на Рождество/A Bramble House Christmas (2017) HDTVRip [MVO] [AD]
    загрузка...
    Рейтинг →
     (голосов: 1, оценка 3/5, голосовать можно 1 раз )

    Другие торренты по теме:

  • Один шанс на двоих / Une chance sur deux (1998) DVDRip [H.264]
  • Второй шанс / Danny Collins (2015) WEBRip [Line] скачать через торрент бесплатно
  • Второй шанс / Danny Collins (2015) WEB-DL [H.264 / 720p-LQ] скачать через торрент бесплатно
  • Второй шанс / Danny Collins (2015) WEB-DL [720p] ATV скачать через торрент бесплатно
  • Второй шанс / Danny Collins (2015) WEB-DL [H.264 / 1080p-LQ] скачать через торрент бесплатно
  • Второй шанс / Danny Collins (2015) WEB-DLRip скачать через торрент бесплатно
  • Второй шанс / Danny Collins (2014) WEB-DLRip скачать через торрент бесплатно
  • Второй шанс / En chance til (2014) HDRip скачать через торрент бесплатно


    • Комментарии (0):

      Информация

      Информация

        Посетители, находящиеся в группе Гости, не могут оставлять комментарии в данной новости.

        ↓ Меню




        ↓ Опрос

        Вы добавили сайт в закладки?
        Да
        Нет


        Top 10 за месяц (Фильмы)