.
Авторизация | Регистрация
Хочешь лучшие торренты? Добавь свой email!
Добавить

Торрент скачать бесплатно

» » Спартак: Боги арены / Spartacus: Gods of the Arena (2011) BDRemux [H.264 / 1080p] (сезон 1, серии 1-6 из 6) LostFilm, РенТВ торрент скачать бесплатно




    Спартак: Боги арены / Spartacus: Gods of the Arena (2011) BDRemux [H.264 / 1080p] (сезон 1, серии 1-6 из 6) LostFilm, РенТВ торрент скачать бесплатно

    Опубликовал: Админ | Дата: 1-12-2017, 05:00 | Просмотров: 0

    Производство: США, Starz Media, Starz Productions
    Жанр: Исторический, Драма, Боевик
    Режиссер: Рик Джейкобсон

    Актеры
    Джон Ханна, Люси Лоулесс, Джессика Грэйс Смит, Ник Тарабэй, Райхо Василев, Мариса Рамирез, Ману Беннетт, Дастин Клер, Лесли-Энн Брандт, Питер Менса

    Описание

    Нам показывается время, когда Батиат взял у своего отца узды правления в свои руки. Он активно тренирует гладиаторов, стремясь принести славу своему дому. Со своей красивой и коварной женой Лукрецией он не остановится ни перед чем, пытаясь занести свое имя в историю.
    Батиат сосредотачивает свои усилия на плутоватом гладиаторе Ганнике, человеке, умение которого обращаться с мечом непревзойденно. Он всегда сражается так, как будто это его последний бой…

    Возраст: 18+ (зрителям, достигшим 18 лет. запрещено для детей)
    Продолжительность: 05: 43: 37 (~00: 55: 00 серия)
    Качество видео: BDRemux
    Перевод: Многоголосый закадровый, профессиональный (LostFilm ); Дублированный (РенТВ )
    Субтитры: Русские (Форсированные) на непереведенные фрагменты, Русские (Полные)
    Видео: AVC/H.264, 1920х1080 (16: 9), ~22, 8 Mbps
    Аудио 1: DTS-HD MA, 6 ch, ~2215 kbps, 48 kHz, 16-bit - русский, многоголосый закадровый
    Аудио 2: AC-3, 192 kbps, 2 ch, 48 kHz, 16-bit - русский, дублированный

    Общее
    Уникальный идентификатор : 242726862715337890255637166118507211562 (0xB69B7E4A4A0BD9B180F35F3D9A656B2A)
    Полное имя : F: Downloads Torrent1.HD2.СериалыСпартак. Боги арены.(Сезон 0).(2011).BDRemux.1080р.(LostFilm, РенТВ)1. Былые проступки.mkv
    Формат : Matroska
    Версия формата : Version 4/Version 2
    Размер файла : 9, 32 Гбайт
    Продолжительность : 52 м. 48 с.
    Режим общего битрейта : Переменный
    Общий поток : 25, 3 Мбит/сек
    Дата кодирования : UTC 2017-11-27 14: 35: 20
    Программа кодирования : mkvmerge v8.3.0 (\'Over the Horizon\') 64bit
    Библиотека кодирования : libebml v1.3.1 + libmatroska v1.4.2
    Видео
    Идентификатор : 1
    Формат : AVC
    Формат/Информация : Advanced Video Codec
    Профиль формата : High@L4.1
    Настройки формата : CABAC/2 Ref Frames
    Параметр CABAC формата : Да
    Параметр RefFrames формата : 2 кадра
    Идентификатор кодека : V_MPEG4/ISO/AVC
    Продолжительность : 52 м. 48 с.
    Вид битрейта : Переменный
    Битрейт : 22, 8 Мбит/сек
    Ширина : 1920 пикселей
    Высота : 1080 пикселей
    Соотношение сторон : 16: 9
    Режим частоты кадров : Постоянный
    Частота кадров : 23, 976 (24000/1001) кадра/сек
    Цветовое пространство : YUV
    Субдискретизация насыщенности : 4: 2: 0
    Битовая глубина : 8 бит
    Тип развёртки : Прогрессивная
    Бит/(Пиксели*Кадры) : 0.459
    Размер потока : 8, 41 Гбайт (90%)
    Default : Да
    Forced : Нет
    Аудио #1
    Идентификатор : 2
    Формат : DTS
    Формат/Информация : Digital Theater Systems
    Профиль формата : MA/Core
    Идентификатор кодека : A_DTS
    Продолжительность : 52 м. 48 с.
    Вид битрейта : Переменный/Постоянный
    Битрейт : 2213 Кбит/сек/1509 Кбит/сек
    Каналы : 6 каналов
    Расположение каналов : Front: L C R, Side: L R, LFE
    Частота : 48, 0 КГц
    Частота кадров : 93, 750 кадра/сек (512 SPF)
    Битовая глубина : 16 бит
    Метод сжатия : Без потерь/Lossy
    Размер потока : 836 Мбайт (9%)
    Заголовок : Многоголосый закадровый - LostFilm
    Язык : Russian
    Default : Да
    Forced : Нет
    Аудио #2
    Идентификатор : 3
    Формат : AC-3
    Формат/Информация : Audio Coding 3
    Идентификатор кодека : A_AC3
    Продолжительность : 52 м. 48 с.
    Вид битрейта : Постоянный
    Битрейт : 192 Кбит/сек
    Каналы : 2 канала
    Расположение каналов : Front: L R
    Частота : 48, 0 КГц
    Частота кадров : 31, 250 кадров/сек (1536 SPF)
    Битовая глубина : 16 бит
    Метод сжатия : С потерями
    Размер потока : 72, 5 Мбайт (1%)
    Заголовок : Дублированный - РенТВ
    Язык : Russian
    ServiceKind/String : Complete Main
    Default : Нет
    Forced : Нет
    Текст #1
    Идентификатор : 4
    Формат : PGS
    Идентификатор кодека : S_HDMV/PGS
    Идентификатор кодека/Информация : Picture based subtitle format used on BDs/HD-DVDs
    Продолжительность : 31 м. 30 с.
    Битрейт : 1226 бит/сек
    ElementCount : 22
    Размер потока : 283 Кбайт (0%)
    Заголовок : русские (Форсированные)
    Язык : Russian
    Default : Да
    Forced : Нет
    Текст #2
    Идентификатор : 5
    Формат : PGS
    Идентификатор кодека : S_HDMV/PGS
    Идентификатор кодека/Информация : Picture based subtitle format used on BDs/HD-DVDs
    Продолжительность : 50 м. 22 с.
    Битрейт : 44, 8 Кбит/сек
    ElementCount : 1515
    Размер потока : 16, 1 Мбайт (0%)
    Заголовок : русские (Полные)
    Язык : Russian
    Default : Нет
    Forced : Нет


    Онлайн видео Спартак: Боги арены



    Спартак: Боги арены/Spartacus: Gods of the Arena (2011) BDRemux [H.264/1080p] (сезон 1, серии 1-6 из 6) LostFilm, РенТВ
    загрузка...
    Рейтинг →
     (голосов: 1, оценка 3/5, голосовать можно 1 раз )

    Другие торренты по теме:

  • Футбол. Кубок России 2015-16 1 / 16 финала. Волга (Н. Новгород) - Спартак (Москва) + Выездная модель: Спартак (Москва) (2015) WEBRip скачать через торрент бесплатно
  • Спартак: Война проклятых / Spartacus: War of the Damned (2012) BDRemux [1080p] (Сезон 3, серии 1-10 из 10) (LostFilm, Jaskier)
  • Футбол. Чемпионат России 2014-2015 (26-й тур) Спартак (Москва) - Зенит (Санкт-Петербург) + Превью (2015.05.02) SATRip скачать через торрент бесплатно
  • Спартак / Spartacus (1960) BDRip [H.264 / 720р-LQ] скачать через торрент бесплатно
  • Спартак: полная коллекция / Spartacus: Full Collection (2010-2013) HDRip[H.264] LostFilm [MP4|960х544] скачать через торрент бесплатно
  • Футбол. Чемпионат России 2015-2016. 8-й тур. Спартак - Ростов (2015) HDTVRip скачать через торрент бесплатно
  • Футбол. Чемпионат России 2015-2016. 9-й тур. Кубань - Спартак (2015) HDTVRip [H.264 / 720p-LQ] [hand made 50fps] скачать через торрент бесплатно
  • Футбол. Чемпионат России 2015-2016. 10 тур. РФПЛ. Спартак - Зенит (2015) HDTVRip [H.264 / 720p-LQ] [hand made 50fps] скачать через торрент бесплатно


    • Комментарии (0):

      Информация

      Информация

        Посетители, находящиеся в группе Гости, не могут оставлять комментарии в данной новости.

        ↓ Меню




        ↓ Опрос

        Вы добавили сайт в закладки?
        Да
        Нет


        Top 10 за месяц (Фильмы)