.
Авторизация | Регистрация
Хочешь лучшие торренты? Добавь свой email!
Добавить

Торрент скачать бесплатно

» » Второе зрение (2016) WEBRip (серии 1-2 из 12) (обновляемая) торрент скачать бесплатно




    Второе зрение (2016) WEBRip (серии 1-2 из 12) (обновляемая) торрент скачать бесплатно

    Опубликовал: Админ | Дата: 1-12-2017, 05:00 | Просмотров: 0

    Производство: Россия
    Жанр: детектив, боевик
    Режиссер: Кирилл Белевич

    Актеры
    Павел Трубинер, Валерия Бурдужа, Мария Шумакова, Александр Галибин, Александр Фисенко, Александр Вершинин, Микаэль Джанибекян, Илья Кипоренко, Алексей Тихонов и др.

    Описание

    Следователь убойного отдела Ефремов допускает непростительную ошибку, в результате которой гибнет его коллега, друг и наставник. Сам герой лишается зрения, но добивается возвращения на службу. Слепота до предела обостряет остальные чувства, что позволяет ему видеть то, что упускают другие. Теперь Ефремов виртуозно расследует запутанные преступления, но прошлое не дает покоя. Сможет ли уникальный следователь раскрыть то роковое преступление и как-то исправить совершенную им ошибку?

    Дата российской премьеры: 29 ноября 2017
    Продолжительность: ~00: 50: 00 серия
    Качество видео: WEBRip
    Видео: Xvid, 720x400 (16: 9), ~1575 Kbps
    Аудио: AC3, 2 ch, 192 Kbps

    Общее
    Полное имя : D: Второе зрение (2016).WEBRipСерия 01.avi
    Формат : AVI
    Формат/Информация : Audio Video Interleave
    Размер файла : 655 Мбайт
    Продолжительность : 51 м. 32 с.
    Общий поток : 1777 Кбит/сек
    Программа кодирования : VirtualDubMod 1.5.10.3 |www.virtualdub-fr.org|| (build 2550/release)
    Библиотека кодирования : VirtualDubMod build 2550/release
    Видео
    Идентификатор : 0
    Формат : MPEG-4 Visual
    Профиль формата : Advanced Simple@L5
    Настройки формата : BVOP1/Custom Matrix
    Параметр BVOP формата : 1
    Параметр QPel формата : Нет
    Параметр GMC формата : Без точки перехода
    Параметр матрицы формата : Выборочная
    Идентификатор кодека : XVID
    Идентификатор кодека/Подсказка : XviD
    Продолжительность : 51 м. 32 с.
    Битрейт : 1575 Кбит/сек
    Ширина : 720 пикселей
    Высота : 400 пикселей
    Соотношение сторон : 16: 9
    Частота кадров : 25, 000 кадров/сек
    Цветовое пространство : YUV
    Субдискретизация насыщенности : 4: 2: 0
    Битовая глубина : 8 бит
    Тип развёртки : Прогрессивная
    Метод сжатия : С потерями
    Бит/(Пиксели*Кадры) : 0.219
    Размер потока : 581 Мбайт (89%)
    Библиотека кодирования : XviD 73
    Аудио
    Идентификатор : 1
    Формат : AC-3
    Формат/Информация : Audio Coding 3
    Идентификатор кодека : 2000
    Продолжительность : 51 м. 32 с.
    Вид битрейта : Постоянный
    Битрейт : 192 Кбит/сек
    Каналы : 2 канала
    Расположение каналов : Front: L R
    Частота : 48, 0 КГц
    Частота кадров : 31, 250 кадров/сек (1536 SPF)
    Битовая глубина : 16 бит
    Метод сжатия : С потерями
    Размер потока : 70, 8 Мбайт (11%)
    Выравнивание : Разделение по промежуткам
    Продолжительность промежутка : 40 мс. (1, 00 видеокадр)
    Время предзагрузки промежутка : 500 мс.
    ServiceKind/String : Complete Main


    Онлайн видео Второе зрение (2016) WEBRip (серии 1



    Второе зрение (2016) WEBRip (серии 1-2 из 12) (обновляемая)
    загрузка...
    Рейтинг →
     (голосов: 1, оценка 3/5, голосовать можно 1 раз )

    Другие торренты по теме:

  • Второе зрение (2016) WEB-DL [H.264 / 720p-LQ] (серии 1-2 из 12) (обновляемая)
  • Второе зрение (2016) SATRip [H.264] (сезон 1, серии 1-4 из 12) (обновляемая)


    • Комментарии (0):

      Информация

      Информация

        Посетители, находящиеся в группе Гости, не могут оставлять комментарии в данной новости.

        ↓ Меню




        ↓ Опрос

        Вы добавили сайт в закладки?
        Да
        Нет


        Top 10 за месяц (Фильмы)