.
Авторизация | Регистрация
Хочешь лучшие торренты? Добавь свой email!
Добавить

Торрент скачать бесплатно

» » Второе зрение (2016) WEB-DL [H.264 / 720p-LQ] (серии 1-2 из 12) (обновляемая) торрент скачать бесплатно




    Второе зрение (2016) WEB-DL [H.264 / 720p-LQ] (серии 1-2 из 12) (обновляемая) торрент скачать бесплатно

    Опубликовал: Админ | Дата: 1-12-2017, 05:00 | Просмотров: 0

    Производство: Россия
    Жанр: детектив, боевик
    Режиссер: Кирилл Белевич

    Актеры
    Павел Трубинер, Валерия Бурдужа, Мария Шумакова, Александр Галибин, Александр Фисенко, Александр Вершинин, Микаэль Джанибекян, Илья Кипоренко, Алексей Тихонов и др.

    Описание

    Следователь убойного отдела Ефремов допускает непростительную ошибку, в результате которой гибнет его коллега, друг и наставник. Сам герой лишается зрения, но добивается возвращения на службу. Слепота до предела обостряет остальные чувства, что позволяет ему видеть то, что упускают другие. Теперь Ефремов виртуозно расследует запутанные преступления, но прошлое не дает покоя. Сможет ли уникальный следователь раскрыть то роковое преступление и как-то исправить совершенную им ошибку?

    Дата российской премьеры: 29 ноября 2017
    Продолжительность: ~00: 50: 00 серия
    Качество видео: WEB-DL
    Видео: AVC/H.264, 1280x720 (16: 9), ~3020 Kbps
    Аудио: AC3, 2 ch, 192 Kbps

    Общее
    Уникальный идентификатор : 215395115543371361639038203414281258999 (0xA20B971D3E60186B9329BCEC76AD07F7)
    Полное имя : D: Второе зрение (2016)Серия 01.mkv
    Формат : Matroska
    Версия формата : Version 2
    Размер файла : 1, 18 Гбайт
    Продолжительность : 51 м. 31 с.
    Режим общего битрейта : Постоянный
    Общий поток : 3277 Кбит/сек
    Дата кодирования : UTC 2017-11-29 19: 38: 30
    Программа кодирования : mkvmerge v4.0.0 (\'The Stars were mine\') сборка от Jun 6 2010 16: 18: 42
    Библиотека кодирования : libebml v1.0.0 + libmatroska v1.0.0
    Видео
    Идентификатор : 1
    Формат : AVC
    Формат/Информация : Advanced Video Codec
    Профиль формата : High@L4.1
    Настройки формата : CABAC/4 Ref Frames
    Параметр CABAC формата : Да
    Параметр RefFrames формата : 4 кадра
    Идентификатор кодека : V_MPEG4/ISO/AVC
    Продолжительность : 51 м. 31 с.
    Вид битрейта : Постоянный
    Битрейт : 3020 Кбит/сек
    Номинальный битрейт : 3200 Кбит/сек
    Ширина : 1280 пикселей
    Высота : 720 пикселей
    Соотношение сторон : 16: 9
    Режим частоты кадров : Постоянный
    Частота кадров : 25, 000 кадров/сек
    Цветовое пространство : YUV
    Субдискретизация насыщенности : 4: 2: 0
    Битовая глубина : 8 бит
    Тип развёртки : Прогрессивная
    Бит/(Пиксели*Кадры) : 0.131
    Размер потока : 1, 09 Гбайт (92%)
    Default : Да
    Forced : Нет
    Аудио
    Идентификатор : 2
    Формат : AC-3
    Формат/Информация : Audio Coding 3
    Идентификатор кодека : A_AC3
    Продолжительность : 51 м. 31 с.
    Вид битрейта : Постоянный
    Битрейт : 192 Кбит/сек
    Каналы : 2 канала
    Расположение каналов : Front: L R
    Частота : 48, 0 КГц
    Частота кадров : 31, 250 кадров/сек (1536 SPF)
    Битовая глубина : 16 бит
    Метод сжатия : С потерями
    Размер потока : 70, 7 Мбайт (6%)
    ServiceKind/String : Complete Main
    Default : Да
    Forced : Нет


    Онлайн видео Второе зрение (2016) WEB-DL [H.264



    Второе зрение (2016) WEB-DL [H.264/720p-LQ] (серии 1-2 из 12) (обновляемая)
    загрузка...
    Рейтинг →
     (голосов: 1, оценка 4/5, голосовать можно 1 раз )

    Другие торренты по теме:

  • Второе зрение (2016) WEBRip (серии 1-2 из 12) (обновляемая)
  • Второе зрение (2016) SATRip [H.264] (сезон 1, серии 1-4 из 12) (обновляемая)


    • Комментарии (0):

      Информация

      Информация

        Посетители, находящиеся в группе Гости, не могут оставлять комментарии в данной новости.

        ↓ Меню




        ↓ Опрос

        Вы добавили сайт в закладки?
        Да
        Нет


        Top 10 за месяц (Фильмы)