.
Авторизация | Регистрация
Хочешь лучшие торренты? Добавь свой email!
Добавить

Торрент скачать бесплатно

» » Сборник клипов - Казахстанские клипы от ALEXnROCK (2017) WEBRip (часть 1) торрент скачать бесплатно




    Сборник клипов - Казахстанские клипы от ALEXnROCK (2017) WEBRip (часть 1) торрент скачать бесплатно

    Опубликовал: Админ | Дата: 1-12-2017, 05:00 | Просмотров: 0

    Название: Лучшие Казахстанские клипы от ALEXnROCK
    Жанр: Поп
    Год выпуска: 2017
    Продолжительность: 03: 53: 33

    Описание

    В сборник вошли самые лучшие клипы от казахстанских исполнителей. Я очень старался выбирая клипы. Надеюсь вам понравится моя работа. Это 1я часть сборника. Смотрите слушайте и наслаждайтесь. Все лучшее для вас. ALEXnROCK
    Читается любым бытовым плеером.
    Многонациональному народу моей родной и горячо любимой Азии посвящается...
    Формат: AVI
    Качество: WEBRip
    Видео : XviD, 720x408 (16: 9) 2400Kbps 25-29fps
    Аудио : Mp3 44000KHz, 2 ch, 192 Kbps
    Треклист:
    000 Intro
    001 Кайрат Баекенов Формат тобы - Махаббат
    002 Lashyn - Казагымнын арулары-ай
    003 Шамси - Ханшасы
    004 Мадина Садуакасова - Журегыме багынбаймын
    005 Шахаризат Сейдахмет - Макпалжан
    006 Макпал Исабекова Дильназ Ахмадиева - Кимадын
    007 Кайрат Нуртас - Ол сен емес
    008 КешYou тобы - Келші жаныма
    009 Нур мукасан - Егіз журек
    010 Асхат Таргын - Биле женге
    011 Орда - Алып кет (OST Свадьба на троих)
    012 Шахзода - Мой золотой
    013 Juniors - Кешір
    014 Арманай - Арман-ай
    015 Mysterions Арай тобы - Карагым-ай
    016 Диета KZ-Шынар ау
    017 Айкын - Умітін узілмесін OST “ВУЗеры-4“
    018 Абай Бегей Дуэт К2 - Еріндерін кандай
    019 All Davai Burash - История любви
    020 Kesh You - Ризамын
    021 Асан Пердешов - Биле жаным, билешi
    022 Беркут Аиша - Титтей
    023 Али Окапов - Алга
    024 Торегали Тореали - Казак кызга уйленем
    025 Кайрат Нуртас - Байка
    026 Батыр - Отан Ана
    027 Жебе - Сулулар багы
    028 Райхан Альмурзина - Жігітім
    029 Алау тобы - Тында
    030 Камшат Жолдыбаева - Суйіктім
    031 All Давай - Алматы - Дубай
    032 Lashyn - Тандаганым
    033 Rin\'Go - Сагыныш
    034 Melo\'men - Бота-Бота
    035 Абдіжаппар Алкожа - Урланган ан
    036 Ерке Есмахан - Бал сезім
    037 Агайындылар тобы - Рас па
    038 Дервиши - Тюбетейка
    039 Арай тобы - Бажалар
    040 Mysterions - Гашык едим ft.Tilek
    041 Асхат Таргын - Уйленейік
    042 Дастан Оразбеков ТТ - Казакпын Мен!
    043 Айкын Толепберген - Жалан аяк кыз
    044 Lashyn тобы - Багаламадын
    045 All Давай feat. Анастасия Россошанская - Скажи
    046 NNBEK тобы - Iздеймiн
    047 Бахыт Алтай - Сенсін гашыгым
    048 Шахзода - О Марьям, Марьям
    049 Саламат тобы - Махаббатты армандаймын
    050 Бек нур - Жана жыл
    051 Лидо, Ахмадиева, Садвакасова, Исабекова, Умарова
    052 Нурлан Алімжан - Ак кусым
    053 Серик Ибрагимов - Вокзалда кауышкан кыз
    054 КешYou - Махаббат
    055 Алишер Каримов - Cуйе білген бір бакыт
    056 All Давай - Диско Джедай
    057 Juniors - Айналайын
    058 Мело\'мен - Казак кызы
    059 Шамси - Taттiм менiн
    060 Торегали Тореалі - Байконыр

    Общее
    Полное имя : Сборник KZ клипов avi Часть 100 Intro ALEXnROCK.avi
    Формат : AVI
    Формат/Информация : Audio Video Interleave
    Размер файла : 10, 9 Мбайт
    Продолжительность : 1 м. 10 с.
    Общий поток : 1297 Кбит/сек
    Программа кодирования : VirtualDubMod 1.5.10.2 (build 2540/release)
    Библиотека кодирования : VirtualDubMod build 2540/release
    Видео
    Идентификатор : 0
    Формат : MPEG-4 Visual
    Профиль формата : Advanced Simple@L5
    Настройки формата : BVOP2
    Параметр BVOP формата : 2
    Параметр QPel формата : Нет
    Параметр GMC формата : Без точки перехода
    Параметр матрицы формата : Default (H.263)
    Режим смешивания : Сжатый битовый поток
    Идентификатор кодека : XVID
    Идентификатор кодека/Подсказка : XviD
    Продолжительность : 1 м. 10 с.
    Битрейт : 1092 Кбит/сек
    Ширина : 720 пикселей
    Высота : 408 пикселей
    Соотношение сторон : 16: 9
    Частота кадров : 29, 970 (30000/1001) кадров/сек
    Цветовое пространство : YUV
    Субдискретизация насыщенности : 4: 2: 0
    Битовая глубина : 8 бит
    Тип развёртки : Прогрессивная
    Метод сжатия : С потерями
    Бит/(Пиксели*Кадры) : 0.124
    Размер потока : 9, 17 Мбайт (84%)
    Библиотека кодирования : XviD 1.2.1 (UTC 2008-12-04)
    Аудио
    Идентификатор : 1
    Формат : MPEG Audio
    Версия формата : Version 1
    Профиль формата : Layer 3
    Идентификатор кодека : 55
    Идентификатор кодека/Подсказка : MP3
    Продолжительность : 1 м. 10 с.
    Вид битрейта : Постоянный
    Битрейт : 192 Кбит/сек
    Каналы : 2 канала
    Частота : 44, 1 КГц
    Метод сжатия : С потерями
    Размер потока : 1, 61 Мбайт (15%)
    Выравнивание : Разделение по промежуткам
    Продолжительность промежутка : 34 мс. (1, 01 видеокадр)
    Время предзагрузки промежутка : 500 мс.
    Библиотека кодирования : LAME3.99r
    Настройки программы : -m s -V 4 -q 2 -lowpass 18.6 -b 192
    Общее
    Полное имя : E: Казахстансие клипыСборник KZ клипов avi Часть 101 Кайрат Баекенов Формат тобы - Махаббат ALEXnROCK.avi
    Формат : AVI
    Формат/Информация : Audio Video Interleave
    Размер файла : 75, 5 Мбайт
    Продолжительность : 3 м. 54 с.
    Общий поток : 2702 Кбит/сек
    Программа кодирования : VirtualDubMod 1.5.10.3 |www.virtualdub-fr.org|| (build 2550/release)
    Библиотека кодирования : VirtualDubMod build 2550/release
    Видео
    Идентификатор : 0
    Формат : MPEG-4 Visual
    Профиль формата : Advanced Simple@L5
    Настройки формата : BVOP2
    Параметр BVOP формата : 2
    Параметр QPel формата : Нет
    Параметр GMC формата : Без точки перехода
    Параметр матрицы формата : Default (H.263)
    Режим смешивания : Сжатый битовый поток
    Идентификатор кодека : XVID
    Идентификатор кодека/Подсказка : XviD
    Продолжительность : 3 м. 54 с.
    Битрейт : 2500 Кбит/сек
    Ширина : 720 пикселей
    Высота : 408 пикселей
    Соотношение сторон : 16: 9
    Частота кадров : 25, 000 кадров/сек
    Цветовое пространство : YUV
    Субдискретизация насыщенности : 4: 2: 0
    Битовая глубина : 8 бит
    Тип развёртки : Прогрессивная
    Метод сжатия : С потерями
    Бит/(Пиксели*Кадры) : 0.340
    Размер потока : 69, 9 Мбайт (93%)
    Библиотека кодирования : XviD 1.2.1 (UTC 2008-12-04)
    Аудио
    Идентификатор : 1
    Формат : MPEG Audio
    Версия формата : Version 1
    Профиль формата : Layer 3
    Идентификатор кодека : 55
    Идентификатор кодека/Подсказка : MP3
    Продолжительность : 3 м. 54 с.
    Вид битрейта : Постоянный
    Битрейт : 192 Кбит/сек
    Каналы : 2 канала
    Частота : 44, 1 КГц
    Метод сжатия : С потерями
    Размер потока : 5, 37 Мбайт (7%)
    Выравнивание : Разделение по промежуткам
    Продолжительность промежутка : 40 мс. (1, 00 видеокадр)
    Время предзагрузки промежутка : 500 мс.
    Библиотека кодирования : LAME3.99r
    Настройки программы : -m s -V 4 -q 0 -lowpass 18.6 -b 192
    Общее
    Полное имя : E: Казахстансие клипыСборник KZ клипов avi Часть 102 Lashyn - Казагымнын арулары-ай ALEXnROCK.avi
    Формат : AVI
    Формат/Информация : Audio Video Interleave
    Размер файла : 70, 3 Мбайт
    Продолжительность : 3 м. 55 с.
    Общий поток : 2502 Кбит/сек
    Программа кодирования : VirtualDubMod 1.5.10.3 |www.virtualdub-fr.org|| (build 2550/release)
    Библиотека кодирования : VirtualDubMod build 2550/release
    Видео
    Идентификатор : 0
    Формат : MPEG-4 Visual
    Профиль формата : Advanced Simple@L5
    Настройки формата : BVOP2
    Параметр BVOP формата : 2
    Параметр QPel формата : Нет
    Параметр GMC формата : Без точки перехода
    Параметр матрицы формата : Default (H.263)
    Режим смешивания : Сжатый битовый поток
    Идентификатор кодека : XVID
    Идентификатор кодека/Подсказка : XviD
    Продолжительность : 3 м. 55 с.
    Битрейт : 2300 Кбит/сек
    Ширина : 720 пикселей
    Высота : 408 пикселей
    Соотношение сторон : 16: 9
    Частота кадров : 25, 000 кадров/сек
    Цветовое пространство : YUV
    Субдискретизация насыщенности : 4: 2: 0
    Битовая глубина : 8 бит
    Тип развёртки : Прогрессивная
    Метод сжатия : С потерями
    Бит/(Пиксели*Кадры) : 0.313
    Размер потока : 64, 6 Мбайт (92%)
    Библиотека кодирования : XviD 1.2.1 (UTC 2008-12-04)
    Аудио
    Идентификатор : 1
    Формат : MPEG Audio
    Версия формата : Version 1
    Профиль формата : Layer 3
    Идентификатор кодека : 55
    Идентификатор кодека/Подсказка : MP3
    Продолжительность : 3 м. 55 с.
    Вид битрейта : Постоянный
    Битрейт : 192 Кбит/сек
    Каналы : 2 канала
    Частота : 44, 1 КГц
    Метод сжатия : С потерями
    Размер потока : 5, 39 Мбайт (8%)
    Выравнивание : Разделение по промежуткам
    Продолжительность промежутка : 40 мс. (1, 00 видеокадр)
    Время предзагрузки промежутка : 500 мс.
    Библиотека кодирования : LAME3.99r
    Настройки программы : -m s -V 4 -q 0 -lowpass 18.6 -b 192
    Общее
    Полное имя : E: Казахстансие клипыСборник KZ клипов avi Часть 103 Шамси - Ханшасы ALEXnROCK.avi
    Формат : AVI
    Формат/Информация : Audio Video Interleave
    Размер файла : 77, 4 Мбайт
    Продолжительность : 4 м. 0 с.
    Общий поток : 2701 Кбит/сек
    Программа кодирования : VirtualDubMod 1.5.10.3 |www.virtualdub-fr.org|| (build 2550/release)
    Библиотека кодирования : VirtualDubMod build 2550/release
    Видео
    Идентификатор : 0
    Формат : MPEG-4 Visual
    Профиль формата : Advanced Simple@L5
    Настройки формата : BVOP2
    Параметр BVOP формата : 2
    Параметр QPel формата : Нет
    Параметр GMC формата : Без точки перехода
    Параметр матрицы формата : Default (H.263)
    Режим смешивания : Сжатый битовый поток
    Идентификатор кодека : XVID
    Идентификатор кодека/Подсказка : XviD
    Продолжительность : 4 м. 0 с.
    Битрейт : 2499 Кбит/сек
    Ширина : 720 пикселей
    Высота : 408 пикселей
    Соотношение сторон : 16: 9
    Частота кадров : 25, 000 кадров/сек
    Цветовое пространство : YUV
    Субдискретизация насыщенности : 4: 2: 0
    Битовая глубина : 8 бит
    Тип развёртки : Прогрессивная
    Метод сжатия : С потерями
    Бит/(Пиксели*Кадры) : 0.340
    Размер потока : 71, 6 Мбайт (93%)
    Библиотека кодирования : XviD 1.2.1 (UTC 2008-12-04)
    Аудио
    Идентификатор : 1
    Формат : MPEG Audio
    Версия формата : Version 1
    Профиль формата : Layer 3
    Идентификатор кодека : 55
    Идентификатор кодека/Подсказка : MP3
    Продолжительность : 4 м. 0 с.
    Вид битрейта : Постоянный
    Битрейт : 192 Кбит/сек
    Каналы : 2 канала
    Частота : 44, 1 КГц
    Метод сжатия : С потерями
    Размер потока : 5, 50 Мбайт (7%)
    Выравнивание : Разделение по промежуткам
    Продолжительность промежутка : 40 мс. (1, 00 видеокадр)
    Время предзагрузки промежутка : 500 мс.
    Библиотека кодирования : LAME3.99r
    Настройки программы : -m s -V 4 -q 0 -lowpass 18.6 -b 192
    Общее
    Полное имя : E: Казахстансие клипыСборник KZ клипов avi Часть 104 Мадина Садуакасова - Журегыме багынбаймын ALEXnROCK.avi
    Формат : AVI
    Формат/Информация : Audio Video Interleave
    Размер файла : 83, 3 Мбайт
    Продолжительность : 4 м. 18 с.
    Общий поток : 2703 Кбит/сек
    Программа кодирования : VirtualDubMod 1.5.10.3 |www.virtualdub-fr.org|| (build 2550/release)
    Библиотека кодирования : VirtualDubMod build 2550/release
    Видео
    Идентификатор : 0
    Формат : MPEG-4 Visual
    Профиль формата : Advanced Simple@L5
    Настройки формата : BVOP2
    Параметр BVOP формата : 2
    Параметр QPel формата : Нет
    Параметр GMC формата : Без точки перехода
    Параметр матрицы формата : Default (H.263)
    Режим смешивания : Сжатый битовый поток
    Идентификатор кодека : XVID
    Идентификатор кодека/Подсказка : XviD
    Продолжительность : 4 м. 18 с.
    Битрейт : 2501 Кбит/сек
    Ширина : 720 пикселей
    Высота : 408 пикселей
    Соотношение сторон : 16: 9
    Частота кадров : 25, 000 кадров/сек
    Цветовое пространство : YUV
    Субдискретизация насыщенности : 4: 2: 0
    Битовая глубина : 8 бит
    Тип развёртки : Прогрессивная
    Метод сжатия : С потерями
    Бит/(Пиксели*Кадры) : 0.341
    Размер потока : 77, 1 Мбайт (93%)
    Библиотека кодирования : XviD 1.2.1 (UTC 2008-12-04)
    Аудио
    Идентификатор : 1
    Формат : MPEG Audio
    Версия формата : Version 1
    Профиль формата : Layer 3
    Идентификатор кодека : 55
    Идентификатор кодека/Подсказка : MP3
    Продолжительность : 4 м. 18 с.
    Вид битрейта : Постоянный
    Битрейт : 192 Кбит/сек
    Каналы : 2 канала
    Частота : 44, 1 КГц
    Метод сжатия : С потерями
    Размер потока : 5, 92 Мбайт (7%)
    Выравнивание : Разделение по промежуткам
    Продолжительность промежутка : 40 мс. (1, 00 видеокадр)
    Время предзагрузки промежутка : 500 мс.
    Библиотека кодирования : LAME3.99r
    Настройки программы : -m s -V 4 -q 0 -lowpass 18.6 -b 192
    Общее
    Полное имя : E: Казахстансие клипыСборник KZ клипов avi Часть 105 Шахаризат Сейдахмет - Макпалжан ALEXnROCK.avi
    Формат : AVI
    Формат/Информация : Audio Video Interleave
    Размер файла : 76, 7 Мбайт
    Продолжительность : 3 м. 58 с.
    Общий поток : 2702 Кбит/сек
    Программа кодирования : VirtualDubMod 1.5.10.3 |www.virtualdub-fr.org|| (build 2550/release)
    Библиотека кодирования : VirtualDubMod build 2550/release
    Видео
    Идентификатор : 0
    Формат : MPEG-4 Visual
    Профиль формата : Advanced Simple@L5
    Настройки формата : BVOP2
    Параметр BVOP формата : 2
    Параметр QPel формата : Нет
    Параметр GMC формата : Без точки перехода
    Параметр матрицы формата : Default (H.263)
    Режим смешивания : Сжатый битовый поток
    Идентификатор кодека : XVID
    Идентификатор кодека/Подсказка : XviD
    Продолжительность : 3 м. 58 с.
    Битрейт : 2500 Кбит/сек
    Ширина : 720 пикселей
    Высота : 408 пикселей
    Соотношение сторон : 16: 9
    Частота кадров : 25, 000 кадров/сек
    Цветовое пространство : YUV
    Субдискретизация насыщенности : 4: 2: 0
    Битовая глубина : 8 бит
    Тип развёртки : Прогрессивная
    Метод сжатия : С потерями
    Бит/(Пиксели*Кадры) : 0.340
    Размер потока : 71, 0 Мбайт (93%)
    Библиотека кодирования : XviD 1.2.1 (UTC 2008-12-04)
    Аудио
    Идентификатор : 1
    Формат : MPEG Audio
    Версия формата : Version 1
    Профиль формата : Layer 3
    Идентификатор кодека : 55
    Идентификатор кодека/Подсказка : MP3
    Продолжительность : 3 м. 58 с.
    Вид битрейта : Постоянный
    Битрейт : 192 Кбит/сек
    Каналы : 2 канала
    Частота : 44, 1 КГц
    Метод сжатия : С потерями
    Размер потока : 5, 45 Мбайт (7%)
    Выравнивание : Разделение по промежуткам
    Продолжительность промежутка : 40 мс. (1, 00 видеокадр)
    Время предзагрузки промежутка : 500 мс.
    Библиотека кодирования : LAME3.99r
    Настройки программы : -m s -V 4 -q 0 -lowpass 18.6 -b 192
    Общее
    Полное имя : E: Казахстансие клипыСборник KZ клипов avi Часть 106 Макпал Исабекова Дильназ Ахмадиева - Кимадын ALEXnROCK.avi
    Формат : AVI
    Формат/Информация : Audio Video Interleave
    Размер файла : 84, 5 Мбайт
    Продолжительность : 4 м. 22 с.
    Общий поток : 2702 Кбит/сек
    Программа кодирования : VirtualDubMod 1.5.10.3 |www.virtualdub-fr.org|| (build 2550/release)
    Библиотека кодирования : VirtualDubMod build 2550/release
    Видео
    Идентификатор : 0
    Формат : MPEG-4 Visual
    Профиль формата : Advanced Simple@L5
    Настройки формата : BVOP2
    Параметр BVOP формата : 2
    Параметр QPel формата : Нет
    Параметр GMC формата : Без точки перехода
    Параметр матрицы формата : Default (H.263)
    Режим смешивания : Сжатый битовый поток
    Идентификатор кодека : XVID
    Идентификатор кодека/Подсказка : XviD
    Продолжительность : 4 м. 22 с.
    Битрейт : 2500 Кбит/сек
    Ширина : 720 пикселей
    Высота : 392 пикселя
    Соотношение сторон : 1, 85: 1
    Частота кадров : 25, 000 кадров/сек
    Цветовое пространство : YUV
    Субдискретизация насыщенности : 4: 2: 0
    Битовая глубина : 8 бит
    Тип развёртки : Прогрессивная
    Метод сжатия : С потерями
    Бит/(Пиксели*Кадры) : 0.354
    Размер потока : 78, 2 Мбайт (93%)
    Библиотека кодирования : XviD 1.2.1 (UTC 2008-12-04)
    Аудио
    Идентификатор : 1
    Формат : MPEG Audio
    Версия формата : Version 1
    Профиль формата : Layer 3
    Идентификатор кодека : 55
    Идентификатор кодека/Подсказка : MP3
    Продолжительность : 4 м. 22 с.
    Вид битрейта : Постоянный
    Битрейт : 192 Кбит/сек
    Каналы : 2 канала
    Частота : 44, 1 КГц
    Метод сжатия : С потерями
    Размер потока : 6, 00 Мбайт (7%)
    Выравнивание : Разделение по промежуткам
    Продолжительность промежутка : 40 мс. (1, 00 видеокадр)
    Время предзагрузки промежутка : 500 мс.
    Библиотека кодирования : LAME3.99r
    Настройки программы : -m s -V 4 -q 0 -lowpass 18.6 -b 192
    Общее
    Полное имя : E: Казахстансие клипыСборник KZ клипов avi Часть 107 Кайрат Нуртас - Ол сен емес ALEXnROCK.avi
    Формат : AVI
    Формат/Информация : Audio Video Interleave
    Размер файла : 72, 0 Мбайт
    Продолжительность : 3 м. 43 с.
    Общий поток : 2700 Кбит/сек
    Программа кодирования : VirtualDubMod 1.5.10.3 |www.virtualdub-fr.org|| (build 2550/release)
    Библиотека кодирования : VirtualDubMod build 2550/release
    Видео
    Идентификатор : 0
    Формат : MPEG-4 Visual
    Профиль формата : Advanced Simple@L5
    Настройки формата : BVOP2
    Параметр BVOP формата : 2
    Параметр QPel формата : Нет
    Параметр GMC формата : Без точки перехода
    Параметр матрицы формата : Default (H.263)
    Режим смешивания : Сжатый битовый поток
    Идентификатор кодека : XVID
    Идентификатор кодека/Подсказка : XviD
    Продолжительность : 3 м. 43 с.
    Битрейт : 2498 Кбит/сек
    Ширина : 720 пикселей
    Высота : 408 пикселей
    Соотношение сторон : 16: 9
    Частота кадров : 25, 000 кадров/сек
    Цветовое пространство : YUV
    Субдискретизация насыщенности : 4: 2: 0
    Битовая глубина : 8 бит
    Тип развёртки : Прогрессивная
    Метод сжатия : С потерями
    Бит/(Пиксели*Кадры) : 0.340
    Размер потока : 66, 6 Мбайт (93%)
    Библиотека кодирования : XviD 1.2.1 (UTC 2008-12-04)
    Аудио
    Идентификатор : 1
    Формат : MPEG Audio
    Версия формата : Version 1
    Профиль формата : Layer 3
    Идентификатор кодека : 55
    Идентификатор кодека/Подсказка : MP3
    Продолжительность : 3 м. 43 с.
    Вид битрейта : Постоянный
    Битрейт : 192 Кбит/сек
    Каналы : 2 канала
    Частота : 44, 1 КГц
    Метод сжатия : С потерями
    Размер потока : 5, 12 Мбайт (7%)
    Выравнивание : Разделение по промежуткам
    Продолжительность промежутка : 40 мс. (1, 00 видеокадр)
    Время предзагрузки промежутка : 500 мс.
    Библиотека кодирования : LAME3.99r
    Настройки программы : -m s -V 4 -q 0 -lowpass 18.6 -b 192
    Общее
    Полное имя : E: Казахстансие клипыСборник KZ клипов avi Часть 108 КешYou тобы - Келші жаныма ALEXnROCK.avi
    Формат : AVI
    Формат/Информация : Audio Video Interleave
    Размер файла : 70, 8 Мбайт
    Продолжительность : 3 м. 39 с.
    Общий поток : 2702 Кбит/сек
    Программа кодирования : VirtualDubMod 1.5.10.3 |www.virtualdub-fr.org|| (build 2550/release)
    Библиотека кодирования : VirtualDubMod build 2550/release
    Видео
    Идентификатор : 0
    Формат : MPEG-4 Visual
    Профиль формата : Advanced Simple@L5
    Настройки формата : BVOP2
    Параметр BVOP формата : 2
    Параметр QPel формата : Нет
    Параметр GMC формата : Без точки перехода
    Параметр матрицы формата : Default (H.263)
    Режим смешивания : Сжатый битовый поток
    Идентификатор кодека : XVID
    Идентификатор кодека/Подсказка : XviD
    Продолжительность : 3 м. 39 с.
    Битрейт : 2500 Кбит/сек
    Ширина : 720 пикселей
    Высота : 408 пикселей
    Соотношение сторон : 16: 9
    Частота кадров : 25, 000 кадров/сек
    Цветовое пространство : YUV
    Субдискретизация насыщенности : 4: 2: 0
    Битовая глубина : 8 бит
    Тип развёртки : Прогрессивная
    Метод сжатия : С потерями
    Бит/(Пиксели*Кадры) : 0.340
    Размер потока : 65, 5 Мбайт (93%)
    Библиотека кодирования : XviD 1.2.1 (UTC 2008-12-04)
    Аудио
    Идентификатор : 1
    Формат : MPEG Audio
    Версия формата : Version 1
    Профиль формата : Layer 3
    Идентификатор кодека : 55
    Идентификатор кодека/Подсказка : MP3
    Продолжительность : 3 м. 39 с.
    Вид битрейта : Постоянный
    Битрейт : 192 Кбит/сек
    Каналы : 2 канала
    Частота : 44, 1 КГц
    Метод сжатия : С потерями
    Размер потока : 5, 03 Мбайт (7%)
    Выравнивание : Разделение по промежуткам
    Продолжительность промежутка : 40 мс. (1, 00 видеокадр)
    Время предзагрузки промежутка : 500 мс.
    Библиотека кодирования : LAME3.99r
    Настройки программы : -m s -V 4 -q 0 -lowpass 18.6 -b 192
    Общее
    Полное имя : E: Казахстансие клипыСборник KZ клипов avi Часть 109 Нур мукасан - Егіз журек ALEXnROCK.avi
    Формат : AVI
    Формат/Информация : Audio Video Interleave
    Размер файла : 90, 6 Мбайт
    Продолжительность : 4 м. 42 с.
    Общий поток : 2694 Кбит/сек
    Программа кодирования : VirtualDubMod 1.5.10.3 |www.virtualdub-fr.org|| (build 2550/release)
    Библиотека кодирования : VirtualDubMod build 2550/release
    Видео
    Идентификатор : 0
    Формат : MPEG-4 Visual
    Профиль формата : Advanced Simple@L5
    Настройки формата : BVOP2
    Параметр BVOP формата : 2
    Параметр QPel формата : Нет
    Параметр GMC формата : Без точки перехода
    Параметр матрицы формата : Default (H.263)
    Режим смешивания : Сжатый битовый поток
    Идентификатор кодека : XVID
    Идентификатор кодека/Подсказка : XviD
    Продолжительность : 4 м. 42 с.
    Битрейт : 2492 Кбит/сек
    Ширина : 720 пикселей
    Высота : 400 пикселей
    Соотношение сторон : 16: 9
    Частота кадров : 25, 000 кадров/сек
    Цветовое пространство : YUV
    Субдискретизация насыщенности : 4: 2: 0
    Битовая глубина : 8 бит
    Тип развёртки : Прогрессивная
    Метод сжатия : С потерями
    Бит/(Пиксели*Кадры) : 0.346
    Размер потока : 83, 8 Мбайт (93%)
    Библиотека кодирования : XviD 1.2.1 (UTC 2008-12-04)
    Аудио
    Идентификатор : 1
    Формат : MPEG Audio
    Версия формата : Version 1
    Профиль формата : Layer 3
    Идентификатор кодека : 55
    Идентификатор кодека/Подсказка : MP3
    Продолжительность : 4 м. 42 с.
    Вид битрейта : Постоянный
    Битрейт : 192 Кбит/сек
    Каналы : 2 канала
    Частота : 44, 1 КГц
    Метод сжатия : С потерями
    Размер потока : 6, 46 Мбайт (7%)
    Выравнивание : Разделение по промежуткам
    Продолжительность промежутка : 40 мс. (1, 00 видеокадр)
    Время предзагрузки промежутка : 500 мс.
    Библиотека кодирования : LAME3.99r
    Настройки программы : -m s -V 4 -q 0 -lowpass 18.6 -b 192
    Общее
    Полное имя : E: Казахстансие клипыСборник KZ клипов avi Часть 110 Асхат Таргын - Биле женге ALEXnROCK.avi
    Формат : AVI
    Формат/Информация : Audio Video Interleave
    Размер файла : 68, 1 Мбайт
    Продолжительность : 3 м. 31 с.
    Общий поток : 2701 Кбит/сек
    Программа кодирования : VirtualDubMod 1.5.10.3 |www.virtualdub-fr.org|| (build 2550/release)
    Библиотека кодирования : VirtualDubMod build 2550/release
    Видео
    Идентификатор : 0
    Формат : MPEG-4 Visual
    Профиль формата : Advanced Simple@L5
    Настройки формата : BVOP2
    Параметр BVOP формата : 2
    Параметр QPel формата : Нет
    Параметр GMC формата : Без точки перехода
    Параметр матрицы формата : Default (H.263)
    Режим смешивания : Сжатый битовый поток
    Идентификатор кодека : XVID
    Идентификатор кодека/Подсказка : XviD
    Продолжительность : 3 м. 31 с.
    Битрейт : 2499 Кбит/сек
    Ширина : 720 пикселей
    Высота : 408 пикселей
    Соотношение сторон : 16: 9
    Частота кадров : 25, 000 кадров/сек
    Цветовое пространство : YUV
    Субдискретизация насыщенности : 4: 2: 0
    Битовая глубина : 8 бит
    Тип развёртки : Прогрессивная
    Метод сжатия : С потерями
    Бит/(Пиксели*Кадры) : 0.340
    Размер потока : 63, 0 Мбайт (93%)
    Библиотека кодирования : XviD 1.2.1 (UTC 2008-12-04)
    Аудио
    Идентификатор : 1
    Формат : MPEG Audio
    Версия формата : Version 1
    Профиль формата : Layer 3
    Идентификатор кодека : 55
    Идентификатор кодека/Подсказка : MP3
    Продолжительность : 3 м. 31 с.
    Вид битрейта : Постоянный
    Битрейт : 192 Кбит/сек
    Каналы : 2 канала
    Частота : 44, 1 КГц
    Метод сжатия : С потерями
    Размер потока : 4, 84 Мбайт (7%)
    Выравнивание : Разделение по промежуткам
    Продолжительность промежутка : 40 мс. (1, 00 видеокадр)
    Время предзагрузки промежутка : 500 мс.
    Библиотека кодирования : LAME3.99r
    Настройки программы : -m s -V 4 -q 0 -lowpass 18.6 -b 192
    Общее
    Полное имя : E: Казахстансие клипыСборник KZ клипов avi Часть 111 Орда - Алып кет (OST Свадьба на троих) ALEXnROCK.avi
    Формат : AVI
    Формат/Информация : Audio Video Interleave
    Размер файла : 82, 7 Мбайт
    Продолжительность : 4 м. 16 с.
    Общий поток : 2702 Кбит/сек
    Программа кодирования : VirtualDubMod 1.5.10.3 |www.virtualdub-fr.org|| (build 2550/release)
    Библиотека кодирования : VirtualDubMod build 2550/release
    Видео
    Идентификатор : 0
    Формат : MPEG-4 Visual
    Профиль формата : Advanced Simple@L5
    Настройки формата : BVOP2
    Параметр BVOP формата : 2
    Параметр QPel формата : Нет
    Параметр GMC формата : Без точки перехода
    Параметр матрицы формата : Default (H.263)
    Режим смешивания : Сжатый битовый поток
    Идентификатор кодека : XVID
    Идентификатор кодека/Подсказка : XviD
    Продолжительность : 4 м. 16 с.
    Битрейт : 2500 Кбит/сек
    Ширина : 720 пикселей
    Высота : 408 пикселей
    Соотношение сторон : 16: 9
    Частота кадров : 25, 000 кадров/сек
    Цветовое пространство : YUV
    Субдискретизация насыщенности : 4: 2: 0
    Битовая глубина : 8 бит
    Тип развёртки : Прогрессивная
    Метод сжатия : С потерями
    Бит/(Пиксели*Кадры) : 0.340
    Размер потока : 76, 5 Мбайт (93%)
    Библиотека кодирования : XviD 1.2.1 (UTC 2008-12-04)
    Аудио
    Идентификатор : 1
    Формат : MPEG Audio
    Версия формата : Version 1
    Профиль формата : Layer 3
    Идентификатор кодека : 55
    Идентификатор кодека/Подсказка : MP3
    Продолжительность : 4 м. 16 с.
    Вид битрейта : Постоянный
    Битрейт : 192 Кбит/сек
    Каналы : 2 канала
    Частота : 44, 1 КГц
    Метод сжатия : С потерями
    Размер потока : 5, 87 Мбайт (7%)
    Выравнивание : Разделение по промежуткам
    Продолжительность промежутка : 40 мс. (1, 00 видеокадр)
    Время предзагрузки промежутка : 500 мс.
    Библиотека кодирования : LAME3.99r
    Настройки программы : -m s -V 4 -q 0 -lowpass 18.6 -b 192
    Общее
    Полное имя : E: Казахстансие клипыСборник KZ клипов avi Часть 112 Шахзода - Мой золотой ALEXnROCK.avi
    Формат : AVI
    Формат/Информация : Audio Video Interleave
    Размер файла : 69, 1 Мбайт
    Продолжительность : 3 м. 34 с.
    Общий поток : 2702 Кбит/сек
    Программа кодирования : VirtualDubMod 1.5.10.3 |www.virtualdub-fr.org|| (build 2550/release)
    Библиотека кодирования : VirtualDubMod build 2550/release
    Видео
    Идентификатор : 0
    Формат : MPEG-4 Visual
    Профиль формата : Advanced Simple@L5
    Настройки формата : BVOP2
    Параметр BVOP формата : 2
    Параметр QPel формата : Нет
    Параметр GMC формата : Без точки перехода
    Параметр матрицы формата : Default (H.263)
    Режим смешивания : Сжатый битовый поток
    Идентификатор кодека : XVID
    Идентификатор кодека/Подсказка : XviD
    Продолжительность : 3 м. 34 с.
    Битрейт : 2500 Кбит/сек
    Ширина : 720 пикселей
    Высота : 408 пикселей
    Соотношение сторон : 16: 9
    Частота кадров : 25, 000 кадров/сек
    Цветовое пространство : YUV
    Субдискретизация насыщенности : 4: 2: 0
    Битовая глубина : 8 бит
    Тип развёртки : Прогрессивная
    Метод сжатия : С потерями
    Бит/(Пиксели*Кадры) : 0.340
    Размер потока : 63, 9 Мбайт (93%)
    Библиотека кодирования : XviD 1.2.1 (UTC 2008-12-04)
    Аудио
    Идентификатор : 1
    Формат : MPEG Audio
    Версия формата : Version 1
    Профиль формата : Layer 3
    Идентификатор кодека : 55
    Идентификатор кодека/Подсказка : MP3
    Продолжительность : 3 м. 34 с.
    Вид битрейта : Постоянный
    Битрейт : 192 Кбит/сек
    Каналы : 2 канала
    Частота : 44, 1 КГц
    Метод сжатия : С потерями
    Размер потока : 4, 91 Мбайт (7%)
    Выравнивание : Разделение по промежуткам
    Продолжительность промежутка : 40 мс. (1, 00 видеокадр)
    Время предзагрузки промежутка : 500 мс.
    Библиотека кодирования : LAME3.99r
    Настройки программы : -m s -V 4 -q 0 -lowpass 18.6 -b 192
    Общее
    Полное имя : E: Казахстансие клипыСборник KZ клипов avi Часть 113 Juniors - Кешір ALEXnROCK.avi
    Формат : AVI
    Формат/Информация : Audio Video Interleave
    Размер файла : 88, 5 Мбайт
    Продолжительность : 4 м. 39 с.
    Общий поток : 2657 Кбит/сек
    Программа кодирования : VirtualDubMod 1.5.10.3 |www.virtualdub-fr.org|| (build 2550/release)
    Библиотека кодирования : VirtualDubMod build 2550/release
    Видео
    Идентификатор : 0
    Формат : MPEG-4 Visual
    Профиль формата : Advanced Simple@L5
    Настройки формата : BVOP2
    Параметр BVOP формата : 2
    Параметр QPel формата : Нет
    Параметр GMC формата : Без точки перехода
    Параметр матрицы формата : Default (H.263)
    Режим смешивания : Сжатый битовый поток
    Идентификатор кодека : XVID
    Идентификатор кодека/Подсказка : XviD
    Продолжительность : 4 м. 39 с.
    Битрейт : 2455 Кбит/сек
    Ширина : 720 пикселей
    Высота : 408 пикселей
    Соотношение сторон : 16: 9
    Частота кадров : 25, 000 кадров/сек
    Цветовое пространство : YUV
    Субдискретизация насыщенности : 4: 2: 0
    Битовая глубина : 8 бит
    Тип развёртки : Прогрессивная
    Метод сжатия : С потерями
    Бит/(Пиксели*Кадры) : 0.334
    Размер потока : 81, 7 Мбайт (92%)
    Библиотека кодирования : XviD 1.2.1 (UTC 2008-12-04)
    Аудио
    Идентификатор : 1
    Формат : MPEG Audio
    Версия формата : Version 1
    Профиль формата : Layer 3
    Идентификатор кодека : 55
    Идентификатор кодека/Подсказка : MP3
    Продолжительность : 4 м. 39 с.
    Вид битрейта : Постоянный
    Битрейт : 192 Кбит/сек
    Каналы : 2 канала
    Частота : 44, 1 КГц
    Метод сжатия : С потерями
    Размер потока : 6, 39 Мбайт (7%)
    Выравнивание : Разделение по промежуткам
    Продолжительность промежутка : 40 мс. (1, 00 видеокадр)
    Время предзагрузки промежутка : 500 мс.
    Библиотека кодирования : LAME3.99r
    Настройки программы : -m s -V 4 -q 0 -lowpass 18.6 -b 192
    Общее
    Полное имя : E: Казахстансие клипыСборник KZ клипов avi Часть 114 Арманай - Арман-ай ALEXnROCK.avi
    Формат : AVI
    Формат/Информация : Audio Video Interleave
    Размер файла : 70, 2 Мбайт
    Продолжительность : 3 м. 38 с.
    Общий поток : 2694 Кбит/сек
    Программа кодирования : VirtualDubMod 1.5.10.3 |www.virtualdub-fr.org|| (build 2550/release)
    Библиотека кодирования : VirtualDubMod build 2550/release
    Видео
    Идентификатор : 0
    Формат : MPEG-4 Visual
    Профиль формата : Advanced Simple@L5
    Настройки формата : BVOP2
    Параметр BVOP формата : 2
    Параметр QPel формата : Нет
    Параметр GMC формата : Без точки перехода
    Параметр матрицы формата : Default (H.263)
    Режим смешивания : Сжатый битовый поток
    Идентификатор кодека : XVID
    Идентификатор кодека/Подсказка : XviD
    Продолжительность : 3 м. 38 с.
    Битрейт : 2492 Кбит/сек
    Ширина : 720 пикселей
    Высота : 408 пикселей
    Соотношение сторон : 16: 9
    Частота кадров : 25, 000 кадров/сек
    Цветовое пространство : YUV
    Субдискретизация насыщенности : 4: 2: 0
    Битовая глубина : 8 бит
    Тип развёртки : Прогрессивная
    Метод сжатия : С потерями
    Бит/(Пиксели*Кадры) : 0.339
    Размер потока : 65, 0 Мбайт (92%)
    Библиотека кодирования : XviD 1.2.1 (UTC 2008-12-04)
    Аудио
    Идентификатор : 1
    Формат : MPEG Audio
    Версия формата : Version 1
    Профиль формата : Layer 3
    Идентификатор кодека : 55
    Идентификатор кодека/Подсказка : MP3
    Продолжительность : 3 м. 38 с.
    Вид битрейта : Постоянный
    Битрейт : 192 Кбит/сек
    Каналы : 2 канала
    Частота : 44, 1 КГц
    Метод сжатия : С потерями
    Размер потока : 5, 01 Мбайт (7%)
    Выравнивание : Разделение по промежуткам
    Продолжительность промежутка : 40 мс. (1, 00 видеокадр)
    Время предзагрузки промежутка : 500 мс.
    Библиотека кодирования : LAME3.99r
    Настройки программы : -m s -V 4 -q 0 -lowpass 18.6 -b 192
    Общее
    Полное имя : E: Казахстансие клипыСборник KZ клипов avi Часть 115 Mysterions Арай тобы - Карагым-ай ALEXnROCK.avi
    Формат : AVI
    Формат/Информация : Audio Video Interleave
    Размер файла : 70, 5 Мбайт
    Продолжительность : 3 м. 58 с.
    Общий поток : 2481 Кбит/сек
    Программа кодирования : VirtualDubMod 1.5.10.3 |www.virtualdub-fr.org|| (build 2550/release)
    Библиотека кодирования : VirtualDubMod build 2550/release
    Видео
    Идентификатор : 0
    Формат : MPEG-4 Visual
    Профиль формата : Advanced Simple@L5
    Настройки формата : BVOP2
    Параметр BVOP формата : 2
    Параметр QPel формата : Нет
    Параметр GMC формата : Без точки перехода
    Параметр матрицы формата : Default (H.263)
    Режим смешивания : Сжатый битовый поток
    Идентификатор кодека : XVID
    Идентификатор кодека/Подсказка : XviD
    Продолжительность : 3 м. 58 с.
    Битрейт : 2279 Кбит/сек
    Ширина : 720 пикселей
    Высота : 408 пикселей
    Соотношение сторон : 16: 9
    Частота кадров : 25, 000 кадров/сек
    Цветовое пространство : YUV
    Субдискретизация насыщенности : 4: 2: 0
    Битовая глубина : 8 бит
    Тип развёртки : Прогрессивная
    Метод сжатия : С потерями
    Бит/(Пиксели*Кадры) : 0.310
    Размер потока : 64, 7 Мбайт (92%)
    Библиотека кодирования : XviD 1.2.1 (UTC 2008-12-04)
    Аудио
    Идентификатор : 1
    Формат : MPEG Audio
    Версия формата : Version 1
    Профиль формата : Layer 3
    Идентификатор кодека : 55
    Идентификатор кодека/Подсказка : MP3
    Продолжительность : 3 м. 58 с.
    Вид битрейта : Постоянный
    Битрейт : 192 Кбит/сек
    Каналы : 2 канала
    Частота : 44, 1 КГц
    Метод сжатия : С потерями
    Размер потока : 5, 45 Мбайт (8%)
    Выравнивание : Разделение по промежуткам
    Продолжительность промежутка : 40 мс. (1, 00 видеокадр)
    Время предзагрузки промежутка : 500 мс.
    Библиотека кодирования : LAME3.99r
    Настройки программы : -m s -V 4 -q 0 -lowpass 18.6 -b 192
    Общее
    Полное имя : E: Казахстансие клипыСборник KZ клипов avi Часть 116 Диета KZ-Шынар ау ALEXnROCK.avi
    Формат : AVI
    Формат/Информация : Audio Video Interleave
    Размер файла : 66, 1 Мбайт
    Продолжительность : 3 м. 25 с.
    Общий поток : 2702 Кбит/сек
    Программа кодирования : VirtualDubMod 1.5.10.3 |www.virtualdub-fr.org|| (build 2550/release)
    Библиотека кодирования : VirtualDubMod build 2550/release
    Видео
    Идентификатор : 0
    Формат : MPEG-4 Visual
    Профиль формата : Advanced Simple@L5
    Настройки формата : BVOP2
    Параметр BVOP формата : 2
    Параметр QPel формата : Нет
    Параметр GMC формата : Без точки перехода
    Параметр матрицы формата : Default (H.263)
    Режим смешивания : Сжатый битовый поток
    Идентификатор кодека : XVID
    Идентификатор кодека/Подсказка : XviD
    Продолжительность : 3 м. 25 с.
    Битрейт : 2500 Кбит/сек
    Ширина : 720 пикселей
    Высота : 408 пикселей
    Соотношение сторон : 16: 9
    Частота кадров : 25, 000 кадров/сек
    Цветовое пространство : YUV
    Субдискретизация насыщенности : 4: 2: 0
    Битовая глубина : 8 бит
    Тип развёртки : Прогрессивная
    Метод сжатия : С потерями
    Бит/(Пиксели*Кадры) : 0.340
    Размер потока : 61, 2 Мбайт (93%)
    Библиотека кодирования : XviD 1.2.1 (UTC 2008-12-04)
    Аудио
    Идентификатор : 1
    Формат : MPEG Audio
    Версия формата : Version 1
    Профиль формата : Layer 3
    Идентификатор кодека : 55
    Идентификатор кодека/Подсказка : MP3
    Продолжительность : 3 м. 25 с.
    Вид битрейта : Постоянный
    Битрейт : 192 Кбит/сек
    Каналы : 2 канала
    Частота : 44, 1 КГц
    Метод сжатия : С потерями
    Размер потока : 4, 70 Мбайт (7%)
    Выравнивание : Разделение по промежуткам
    Продолжительность промежутка : 40 мс. (1, 00 видеокадр)
    Время предзагрузки промежутка : 500 мс.
    Библиотека кодирования : LAME3.99r
    Настройки программы : -m s -V 4 -q 0 -lowpass 18.6 -b 192
    Общее
    Полное имя : E: Казахстансие клипыСборник KZ клипов avi Часть 117 Айкын - Умітін узілмесін OST “ВУЗеры-4“ ALEXnROCK.avi
    Формат : AVI
    Формат/Информация : Audio Video Interleave
    Размер файла : 82, 2 Мбайт
    Продолжительность : 4 м. 15 с.
    Общий поток : 2702 Кбит/сек
    Программа кодирования : VirtualDubMod 1.5.10.3 |www.virtualdub-fr.org|| (build 2550/release)
    Библиотека кодирования : VirtualDubMod build 2550/release
    Видео
    Идентификатор : 0
    Формат : MPEG-4 Visual
    Профиль формата : Advanced Simple@L5
    Настройки формата : BVOP2
    Параметр BVOP формата : 2
    Параметр QPel формата : Нет
    Параметр GMC формата : Без точки перехода
    Параметр матрицы формата : Default (H.263)
    Режим смешивания : Сжатый битовый поток
    Идентификатор кодека : XVID
    Идентификатор кодека/Подсказка : XviD
    Продолжительность : 4 м. 15 с.
    Битрейт : 2500 Кбит/сек
    Ширина : 720 пикселей
    Высота : 408 пикселей
    Соотношение сторон : 16: 9
    Частота кадров : 25, 000 кадров/сек
    Цветовое пространство : YUV
    Субдискретизация насыщенности : 4: 2: 0
    Битовая глубина : 8 бит
    Тип развёртки : Прогрессивная
    Метод сжатия : С потерями
    Бит/(Пиксели*Кадры) : 0.340
    Размер потока : 76, 1 Мбайт (93%)
    Библиотека кодирования : XviD 1.2.1 (UTC 2008-12-04)
    Аудио
    Идентификатор : 1
    Формат : MPEG Audio
    Версия формата : Version 1
    Профиль формата : Layer 3
    Идентификатор кодека : 55
    Идентификатор кодека/Подсказка : MP3
    Продолжительность : 4 м. 15 с.
    Вид битрейта : Постоянный
    Битрейт : 192 Кбит/сек
    Каналы : 2 канала
    Частота : 44, 1 КГц
    Метод сжатия : С потерями
    Размер потока : 5, 84 Мбайт (7%)
    Выравнивание : Разделение по промежуткам
    Продолжительность промежутка : 40 мс. (1, 00 видеокадр)
    Время предзагрузки промежутка : 500 мс.
    Библиотека кодирования : LAME3.99r
    Настройки программы : -m s -V 4 -q 0 -lowpass 18.6 -b 192
    Общее
    Полное имя : E: Казахстансие клипыСборник KZ клипов avi Часть 118 Абай Бегей Дуэт К2 - Еріндерін кандай ALEXnROCK.avi
    Формат : AVI
    Формат/Информация : Audio Video Interleave
    Размер файла : 78, 2 Мбайт
    Продолжительность : 4 м. 2 с.
    Общий поток : 2701 Кбит/сек
    Программа кодирования : VirtualDubMod 1.5.10.3 |www.virtualdub-fr.org|| (build 2550/release)
    Библиотека кодирования : VirtualDubMod build 2550/release
    Видео
    Идентификатор : 0
    Формат : MPEG-4 Visual
    Профиль формата : Advanced Simple@L5
    Настройки формата : BVOP2
    Параметр BVOP формата : 2
    Параметр QPel формата : Нет
    Параметр GMC формата : Без точки перехода
    Параметр матрицы формата : Default (H.263)
    Режим смешивания : Сжатый битовый поток
    Идентификатор кодека : XVID
    Идентификатор кодека/Подсказка : XviD
    Продолжительность : 4 м. 2 с.
    Битрейт : 2499 Кбит/сек
    Ширина : 720 пикселей
    Высота : 400 пикселей
    Соотношение сторон : 16: 9
    Частота кадров : 25, 000 кадров/сек
    Цветовое пространство : YUV
    Субдискретизация насыщенности : 4: 2: 0
    Битовая глубина : 8 бит
    Тип развёртки : Прогрессивная
    Метод сжатия : С потерями
    Бит/(Пиксели*Кадры) : 0.347
    Размер потока : 72, 3 Мбайт (93%)
    Библиотека кодирования : XviD 1.2.1 (UTC 2008-12-04)
    Аудио
    Идентификатор : 1
    Формат : MPEG Audio
    Версия формата : Version 1
    Профиль формата : Layer 3
    Идентификатор кодека : 55
    Идентификатор кодека/Подсказка : MP3
    Продолжительность : 4 м. 2 с.
    Вид битрейта : Постоянный
    Битрейт : 192 Кбит/сек
    Каналы : 2 канала
    Частота : 44, 1 КГц
    Метод сжатия : С потерями
    Размер потока : 5, 56 Мбайт (7%)
    Выравнивание : Разделение по промежуткам
    Продолжительность промежутка : 40 мс. (1, 00 видеокадр)
    Время предзагрузки промежутка : 500 мс.
    Библиотека кодирования : LAME3.99r
    Настройки программы : -m s -V 4 -q 0 -lowpass 18.6 -b 192
    Общее
    Полное имя : E: Казахстансие клипыСборник KZ клипов avi Часть 119 All Davai Burash - История любви ALEXnROCK.avi
    Формат : AVI
    Формат/Информация : Audio Video Interleave
    Размер файла : 66, 6 Мбайт
    Продолжительность : 3 м. 49 с.
    Общий поток : 2440 Кбит/сек
    Программа кодирования : VirtualDubMod 1.5.10.3 |www.virtualdub-fr.org|| (build 2550/release)
    Библиотека кодирования : VirtualDubMod build 2550/release
    Видео
    Идентификатор : 0
    Формат : MPEG-4 Visual
    Профиль формата : Advanced Simple@L5
    Настройки формата : BVOP2
    Параметр BVOP формата : 2
    Параметр QPel формата : Нет
    Параметр GMC формата : Без точки перехода
    Параметр матрицы формата : Default (H.263)
    Режим смешивания : Сжатый битовый поток
    Идентификатор кодека : XVID
    Идентификатор кодека/Подсказка : XviD
    Продолжительность : 3 м. 49 с.
    Битрейт : 2238 Кбит/сек
    Ширина : 720 пикселей
    Высота : 296 пикселей
    Соотношение сторон : 2, 40: 1
    Частота кадров : 25, 000 кадров/сек
    Цветовое пространство : YUV
    Субдискретизация насыщенности : 4: 2: 0
    Битовая глубина : 8 бит
    Тип развёртки : Прогрессивная
    Метод сжатия : С потерями
    Бит/(Пиксели*Кадры) : 0.420
    Размер потока : 61, 1 Мбайт (92%)
    Библиотека кодирования : XviD 1.2.1 (UTC 2008-12-04)
    Аудио
    Идентификатор : 1
    Формат : MPEG Audio
    Версия формата : Version 1
    Профиль формата : Layer 3
    Идентификатор кодека : 55
    Идентификатор кодека/Подсказка : MP3
    Продолжительность : 3 м. 49 с.
    Вид битрейта : Постоянный
    Битрейт : 192 Кбит/сек
    Каналы : 2 канала
    Частота : 44, 1 КГц
    Метод сжатия : С потерями
    Размер потока : 5, 24 Мбайт (8%)
    Выравнивание : Разделение по промежуткам
    Продолжительность промежутка : 40 мс. (1, 00 видеокадр)
    Время предзагрузки промежутка : 500 мс.
    Библиотека кодирования : LAME3.99r
    Настройки программы : -m s -V 4 -q 0 -lowpass 18.6 -b 192
    Общее
    Полное имя : E: Казахстансие клипыСборник KZ клипов avi Часть 120 Kesh You - Ризамын ALEXnROCK.avi
    Формат : AVI
    Формат/Информация : Audio Video Interleave
    Размер файла : 70, 8 Мбайт
    Продолжительность : 3 м. 39 с.
    Общий поток : 2702 Кбит/сек
    Программа кодирования : VirtualDubMod 1.5.10.3 |www.virtualdub-fr.org|| (build 2550/release)
    Библиотека кодирования : VirtualDubMod build 2550/release
    Видео
    Идентификатор : 0
    Формат : MPEG-4 Visual
    Профиль формата : Advanced Simple@L5
    Настройки формата : BVOP2
    Параметр BVOP формата : 2
    Параметр QPel формата : Нет
    Параметр GMC формата : Без точки перехода
    Параметр матрицы формата : Default (H.263)
    Режим смешивания : Сжатый битовый поток
    Идентификатор кодека : XVID
    Идентификатор кодека/Подсказка : XviD
    Продолжительность : 3 м. 39 с.
    Битрейт : 2500 Кбит/сек
    Ширина : 720 пикселей
    Высота : 400 пикселей
    Соотношение сторон : 16: 9
    Частота кадров : 25, 000 кадров/сек
    Цветовое пространство : YUV
    Субдискретизация насыщенности : 4: 2: 0
    Битовая глубина : 8 бит
    Тип развёртки : Прогрессивная
    Метод сжатия : С потерями
    Бит/(Пиксели*Кадры) : 0.347
    Размер потока : 65, 5 Мбайт (93%)
    Библиотека кодирования : XviD 1.2.1 (UTC 2008-12-04)
    Аудио
    Идентификатор : 1
    Формат : MPEG Audio
    Версия формата : Version 1
    Профиль формата : Layer 3
    Идентификатор кодека : 55
    Идентификатор кодека/Подсказка : MP3
    Продолжительность : 3 м. 39 с.
    Вид битрейта : Постоянный
    Битрейт : 192 Кбит/сек
    Каналы : 2 канала
    Частота : 44, 1 КГц
    Метод сжатия : С потерями
    Размер потока : 5, 03 Мбайт (7%)
    Выравнивание : Разделение по промежуткам
    Продолжительность промежутка : 40 мс. (1, 00 видеокадр)
    Время предзагрузки промежутка : 500 мс.
    Библиотека кодирования : LAME3.99r
    Настройки программы : -m s -V 4 -q 0 -lowpass 18.6 -b 192
    Общее
    Полное имя : E: Казахстансие клипыСборник KZ клипов avi Часть 121 Асан Пердешов - Биле жаным, билешi ALEXnROCK.avi
    Формат : AVI
    Формат/Информация : Audio Video Interleave
    Размер файла : 69, 8 Мбайт
    Продолжительность : 3 м. 36 с.
    Общий поток : 2702 Кбит/сек
    Программа кодирования : VirtualDubMod 1.5.10.3 |www.virtualdub-fr.org|| (build 2550/release)
    Библиотека кодирования : VirtualDubMod build 2550/release
    Видео
    Идентификатор : 0
    Формат : MPEG-4 Visual
    Профиль формата : Advanced Simple@L5
    Настройки формата : BVOP2
    Параметр BVOP формата : 2
    Параметр QPel формата : Нет
    Параметр GMC формата : Без точки перехода
    Параметр матрицы формата : Default (H.263)
    Режим смешивания : Сжатый битовый поток
    Идентификатор кодека : XVID
    Идентификатор кодека/Подсказка : XviD
    Продолжительность : 3 м. 36 с.
    Битрейт : 2500 Кбит/сек
    Ширина : 720 пикселей
    Высота : 408 пикселей
    Соотношение сторон : 16: 9
    Частота кадров : 25, 000 кадров/сек
    Цветовое пространство : YUV
    Субдискретизация насыщенности : 4: 2: 0
    Битовая глубина : 8 бит
    Тип развёртки : Прогрессивная
    Метод сжатия : С потерями
    Бит/(Пиксели*Кадры) : 0.340
    Размер потока : 64, 6 Мбайт (93%)
    Библиотека кодирования : XviD 1.2.1 (UTC 2008-12-04)
    Аудио
    Идентификатор : 1
    Формат : MPEG Audio
    Версия формата : Version 1
    Профиль формата : Layer 3
    Идентификатор кодека : 55
    Идентификатор кодека/Подсказка : MP3
    Продолжительность : 3 м. 36 с.
    Вид битрейта : Постоянный
    Битрейт : 192 Кбит/сек
    Каналы : 2 канала
    Частота : 44, 1 КГц
    Метод сжатия : С потерями
    Размер потока : 4, 96 Мбайт (7%)
    Выравнивание : Разделение по промежуткам
    Продолжительность промежутка : 40 мс. (1, 00 видеокадр)
    Время предзагрузки промежутка : 500 мс.
    Библиотека кодирования : LAME3.99r
    Настройки программы : -m s -V 4 -q 0 -lowpass 18.6 -b 192
    Общее
    Полное имя : E: Казахстансие клипыСборник KZ клипов avi Часть 122 Беркут Аиша - Титтей ALEXnROCK.avi
    Формат : AVI
    Формат/Информация : Audio Video Interleave
    Размер файла : 86, 1 Мбайт
    Продолжительность : 4 м. 27 с.
    Общий поток : 2700 Кбит/сек
    Программа кодирования : VirtualDubMod 1.5.10.3 |www.virtualdub-fr.org|| (build 2550/release)
    Библиотека кодирования : VirtualDubMod build 2550/release
    Видео
    Идентификатор : 0
    Формат : MPEG-4 Visual
    Профиль формата : Advanced Simple@L5
    Настройки формата : BVOP2
    Параметр BVOP формата : 2
    Параметр QPel формата : Нет
    Параметр GMC формата : Без точки перехода
    Параметр матрицы формата : Default (H.263)
    Режим смешивания : Сжатый битовый поток
    Идентификатор кодека : XVID
    Идентификатор кодека/Подсказка : XviD
    Продолжительность : 4 м. 27 с.
    Битрейт : 2498 Кбит/сек
    Ширина : 720 пикселей
    Высота : 408 пикселей
    Соотношение сторон : 16: 9
    Частота кадров : 25, 000 кадров/сек
    Цветовое пространство : YUV
    Субдискретизация насыщенности : 4: 2: 0
    Битовая глубина : 8 бит
    Тип развёртки : Прогрессивная
    Метод сжатия : С потерями
    Бит/(Пиксели*Кадры) : 0.340
    Размер потока : 79, 6 Мбайт (93%)
    Библиотека кодирования : XviD 1.2.1 (UTC 2008-12-04)
    Аудио
    Идентификатор : 1
    Формат : MPEG Audio
    Версия формата : Version 1
    Профиль формата : Layer 3
    Идентификатор кодека : 55
    Идентификатор кодека/Подсказка : MP3
    Продолжительность : 4 м. 27 с.
    Вид битрейта : Постоянный
    Битрейт : 192 Кбит/сек
    Каналы : 2 канала
    Частота : 44, 1 КГц
    Метод сжатия : С потерями
    Размер потока : 6, 12 Мбайт (7%)
    Выравнивание : Разделение по промежуткам
    Продолжительность промежутка : 40 мс. (1, 00 видеокадр)
    Время предзагрузки промежутка : 500 мс.
    Библиотека кодирования : LAME3.99r
    Настройки программы : -m s -V 4 -q 0 -lowpass 18.6 -b 192
    Общее
    Полное имя : E: Казахстансие клипыСборник KZ клипов avi Часть 123 Али Окапов - Алга ALEXnROCK.avi
    Формат : AVI
    Формат/Информация : Audio Video Interleave
    Размер файла : 115 Мбайт
    Продолжительность : 5 м. 55 с.
    Общий поток : 2702 Кбит/сек
    Программа кодирования : VirtualDubMod 1.5.10.3 |www.virtualdub-fr.org|| (build 2550/release)
    Библиотека кодирования : VirtualDubMod build 2550/release
    Видео
    Идентификатор : 0
    Формат : MPEG-4 Visual
    Профиль формата : Advanced Simple@L5
    Настройки формата : BVOP2
    Параметр BVOP формата : 2
    Параметр QPel формата : Нет
    Параметр GMC формата : Без точки перехода
    Параметр матрицы формата : Default (H.263)
    Режим смешивания : Сжатый битовый поток
    Идентификатор кодека : XVID
    Идентификатор кодека/Подсказка : XviD
    Продолжительность : 5 м. 55 с.
    Битрейт : 2500 Кбит/сек
    Ширина : 720 пикселей
    Высота : 408 пикселей
    Соотношение сторон : 16: 9
    Частота кадров : 25, 000 кадров/сек
    Цветовое пространство : YUV
    Субдискретизация насыщенности : 4: 2: 0
    Битовая глубина : 8 бит
    Тип развёртки : Прогрессивная
    Метод сжатия : С потерями
    Бит/(Пиксели*Кадры) : 0.340
    Размер потока : 106 Мбайт (93%)
    Библиотека кодирования : XviD 1.2.1 (UTC 2008-12-04)
    Аудио
    Идентификатор : 1
    Формат : MPEG Audio
    Версия формата : Version 1
    Профиль формата : Layer 3
    Идентификатор кодека : 55
    Идентификатор кодека/Подсказка : MP3
    Продолжительность : 5 м. 55 с.
    Вид битрейта : Постоянный
    Битрейт : 192 Кбит/сек
    Каналы : 2 канала
    Частота : 44, 1 КГц
    Метод сжатия : С потерями
    Размер потока : 8, 15 Мбайт (7%)
    Выравнивание : Разделение по промежуткам
    Продолжительность промежутка : 40 мс. (1, 00 видеокадр)
    Время предзагрузки промежутка : 500 мс.
    Библиотека кодирования : LAME3.99r
    Настройки программы : -m s -V 4 -q 0 -lowpass 18.6 -b 192
    Общее
    Полное имя : E: Казахстансие клипыСборник KZ клипов avi Часть 124 Торегали Тореали - Казак кызга уйленем ALEXnROCK.avi
    Формат : AVI
    Формат/Информация : Audio Video Interleave
    Размер файла : 49, 4 Мбайт
    Продолжительность : 2 м. 45 с.
    Общий поток : 2500 Кбит/сек
    Программа кодирования : VirtualDubMod 1.5.10.3 |www.virtualdub-fr.org|| (build 2550/release)
    Библиотека кодирования : VirtualDubMod build 2550/release
    Видео
    Идентификатор : 0
    Формат : MPEG-4 Visual
    Профиль формата : Advanced Simple@L5
    Настройки формата : BVOP3
    Параметр BVOP формата : 3
    Параметр QPel формата : Нет
    Параметр GMC формата : Без точки перехода
    Параметр матрицы формата : Default (H.263)
    Идентификатор кодека : XVID
    Идентификатор кодека/Подсказка : XviD
    Продолжительность : 2 м. 45 с.
    Битрейт : 2298 Кбит/сек
    Ширина : 720 пикселей
    Высота : 312 пикселей
    Соотношение сторон : 2, 35: 1
    Частота кадров : 25, 000 кадров/сек
    Цветовое пространство : YUV
    Субдискретизация насыщенности : 4: 2: 0
    Битовая глубина : 8 бит
    Тип развёртки : Прогрессивная
    Метод сжатия : С потерями
    Бит/(Пиксели*Кадры) : 0.409
    Размер потока : 45, 4 Мбайт (92%)
    Библиотека кодирования : XviD 1.2.1 (UTC 2008-12-04)
    Аудио
    Идентификатор : 1
    Формат : MPEG Audio
    Версия формата : Version 1
    Профиль формата : Layer 3
    Идентификатор кодека : 55
    Идентификатор кодека/Подсказка : MP3
    Продолжительность : 2 м. 45 с.
    Вид битрейта : Постоянный
    Битрейт : 192 Кбит/сек
    Каналы : 2 канала
    Частота : 44, 1 КГц
    Метод сжатия : С потерями
    Размер потока : 3, 79 Мбайт (8%)
    Выравнивание : Разделение по промежуткам
    Продолжительность промежутка : 40 мс. (1, 00 видеокадр)
    Время предзагрузки промежутка : 500 мс.
    Библиотека кодирования : LAME3.99r
    Настройки программы : -m s -V 4 -q 0 -lowpass 18.6 -b 192
    Общее
    Полное имя : E: Казахстансие клипыСборник KZ клипов avi Часть 125 Кайрат Нуртас - Байка ALEXnROCK.avi
    Формат : AVI
    Формат/Информация : Audio Video Interleave
    Размер файла : 66, 9 Мбайт
    Продолжительность : 3 м. 30 с.
    Общий поток : 2666 Кбит/сек
    Программа кодирования : VirtualDubMod 1.5.10.3 |www.virtualdub-fr.org|| (build 2550/release)
    Библиотека кодирования : VirtualDubMod build 2550/release
    Видео
    Идентификатор : 0
    Формат : MPEG-4 Visual
    Профиль формата : Advanced Simple@L5
    Настройки формата : BVOP2
    Параметр BVOP формата : 2
    Параметр QPel формата : Нет
    Параметр GMC формата : Без точки перехода
    Параметр матрицы формата : Default (H.263)
    Режим смешивания : Сжатый битовый поток
    Идентификатор кодека : XVID
    Идентификатор кодека/Подсказка : XviD
    Продолжительность : 3 м. 30 с.
    Битрейт : 2464 Кбит/сек
    Ширина : 720 пикселей
    Высота : 408 пикселей
    Соотношение сторон : 16: 9
    Частота кадров : 25, 000 кадров/сек
    Цветовое пространство : YUV
    Субдискретизация насыщенности : 4: 2: 0
    Битовая глубина : 8 бит
    Тип развёртки : Прогрессивная
    Метод сжатия : С потерями
    Бит/(Пиксели*Кадры) : 0.335
    Размер потока : 61, 9 Мбайт (92%)
    Библиотека кодирования : XviD 1.2.1 (UTC 2008-12-04)
    Аудио
    Идентификатор : 1
    Формат : MPEG Audio
    Версия формата : Version 1
    Профиль формата : Layer 3
    Идентификатор кодека : 55
    Идентификатор кодека/Подсказка : MP3
    Продолжительность : 3 м. 30 с.
    Вид битрейта : Постоянный
    Битрейт : 192 Кбит/сек
    Каналы : 2 канала
    Частота : 44, 1 КГц
    Метод сжатия : С потерями
    Размер потока : 4, 82 Мбайт (7%)
    Выравнивание : Разделение по промежуткам
    Продолжительность промежутка : 40 мс. (1, 00 видеокадр)
    Время предзагрузки промежутка : 500 мс.
    Библиотека кодирования : LAME3.99r
    Настройки программы : -m s -V 4 -q 0 -lowpass 18.6 -b 192
    Общее
    Полное имя : E: Казахстансие клипыСборник KZ клипов avi Часть 126 Батыр - Отан Ана ALEXnROCK.avi
    Формат : AVI
    Формат/Информация : Audio Video Interleave
    Размер файла : 94, 1 Мбайт
    Продолжительность : 4 м. 38 с.
    Общий поток : 2830 Кбит/сек
    Программа кодирования : VirtualDubMod 1.5.10.3 |www.virtualdub-fr.org|| (build 2550/release)
    Библиотека кодирования : VirtualDubMod build 2550/release
    Видео
    Идентификатор : 0
    Формат : MPEG-4 Visual
    Профиль формата : Advanced Simple@L5
    Настройки формата : BVOP3
    Параметр BVOP формата : 3
    Параметр QPel формата : Нет
    Параметр GMC формата : Без точки перехода
    Параметр матрицы формата : Default (H.263)
    Идентификатор кодека : XVID
    Идентификатор кодека/Подсказка : XviD
    Продолжительность : 4 м. 38 с.
    Битрейт : 2500 Кбит/сек
    Ширина : 720 пикселей
    Высота : 368 пикселей
    Соотношение сторон : 1, 957
    Частота кадров : 25, 000 кадров/сек
    Цветовое пространство : YUV
    Субдискретизация насыщенности : 4: 2: 0
    Битовая глубина : 8 бит
    Тип развёртки : Прогрессивная
    Метод сжатия : С потерями
    Бит/(Пиксели*Кадры) : 0.377
    Размер потока : 83, 1 Мбайт (88%)
    Библиотека кодирования : XviD 1.2.1 (UTC 2008-12-04)
    Аудио
    Идентификатор : 1
    Формат : MPEG Audio
    Версия формата : Version 1
    Профиль формата : Layer 3
    Идентификатор кодека : 55
    Идентификатор кодека/Подсказка : MP3
    Продолжительность : 4 м. 38 с.
    Вид битрейта : Постоянный
    Битрейт : 320 Кбит/сек
    Каналы : 2 канала
    Частота : 48, 0 КГц
    Метод сжатия : С потерями
    Размер потока : 10, 6 Мбайт (11%)
    Выравнивание : Соединение по промежуткам
    Продолжительность промежутка : 40 мс. (1, 00 видеокадр)
    Время предзагрузки промежутка : 504 мс.
    Библиотека кодирования : LAME3.99r
    Настройки программы : -m s -V 4 -q 0 -lowpass 20.5
    Общее
    Полное имя : E: Казахстансие клипыСборник KZ клипов avi Часть 127 Жебе - Сулулар багы ALEXnROCK.avi
    Формат : AVI
    Формат/Информация : Audio Video Interleave
    Размер файла : 69, 1 Мбайт
    Продолжительность : 3 м. 34 с.
    Общий поток : 2702 Кбит/сек
    Программа кодирования : VirtualDubMod 1.5.10.3 |www.virtualdub-fr.org|| (build 2550/release)
    Библиотека кодирования : VirtualDubMod build 2550/release
    Видео
    Идентификатор : 0
    Формат : MPEG-4 Visual
    Профиль формата : Advanced Simple@L5
    Настройки формата : BVOP2
    Параметр BVOP формата : 2
    Параметр QPel формата : Нет
    Параметр GMC формата : Без точки перехода
    Параметр матрицы формата : Default (H.263)
    Режим смешивания : Сжатый битовый поток
    Идентификатор кодека : XVID
    Идентификатор кодека/Подсказка : XviD
    Продолжительность : 3 м. 34 с.
    Битрейт : 2500 Кбит/сек
    Ширина : 720 пикселей
    Высота : 408 пикселей
    Соотношение сторон : 16: 9
    Частота кадров : 25, 000 кадров/сек
    Цветовое пространство : YUV
    Субдискретизация насыщенности : 4: 2: 0
    Битовая глубина : 8 бит
    Тип развёртки : Прогрессивная
    Метод сжатия : С потерями
    Бит/(Пиксели*Кадры) : 0.340
    Размер потока : 63, 9 Мбайт (93%)
    Библиотека кодирования : XviD 1.2.1 (UTC 2008-12-04)
    Аудио
    Идентификатор : 1
    Формат : MPEG Audio
    Версия формата : Version 1
    Профиль формата : Layer 3
    Идентификатор кодека : 55
    Идентификатор кодека/Подсказка : MP3
    Продолжительность : 3 м. 34 с.
    Вид битрейта : Постоянный
    Битрейт : 192 Кбит/сек
    Каналы : 2 канала
    Частота : 44, 1 КГц
    Метод сжатия : С потерями
    Размер потока : 4, 91 Мбайт (7%)
    Выравнивание : Разделение по промежуткам
    Продолжительность промежутка : 40 мс. (1, 00 видеокадр)
    Время предзагрузки промежутка : 500 мс.
    Библиотека кодирования : LAME3.99r
    Настройки программы : -m s -V 4 -q 0 -lowpass 18.6 -b 192
    Общее
    Полное имя : E: Казахстансие клипыСборник KZ клипов avi Часть 128 Райхан Альмурзина - Жігітім ALEXnROCK.avi
    Формат : AVI
    Формат/Информация : Audio Video Interleave
    Размер файла : 72, 4 Мбайт
    Продолжительность : 3 м. 44 с.
    Общий поток : 2702 Кбит/сек
    Программа кодирования : VirtualDubMod 1.5.10.3 |www.virtualdub-fr.org|| (build 2550/release)
    Библиотека кодирования : VirtualDubMod build 2550/release
    Видео
    Идентификатор : 0
    Формат : MPEG-4 Visual
    Профиль формата : Advanced Simple@L5
    Настройки формата : BVOP2
    Параметр BVOP формата : 2
    Параметр QPel формата : Нет
    Параметр GMC формата : Без точки перехода
    Параметр матрицы формата : Default (H.263)
    Режим смешивания : Сжатый битовый поток
    Идентификатор кодека : XVID
    Идентификатор кодека/Подсказка : XviD
    Продолжительность : 3 м. 44 с.
    Битрейт : 2499 Кбит/сек
    Ширина : 720 пикселей
    Высота : 400 пикселей
    Соотношение сторон : 16: 9
    Частота кадров : 25, 000 кадров/сек
    Цветовое пространство : YUV
    Субдискретизация насыщенности : 4: 2: 0
    Битовая глубина : 8 бит
    Тип развёртки : Прогрессивная
    Метод сжатия : С потерями
    Бит/(Пиксели*Кадры) : 0.347
    Размер потока : 66, 9 Мбайт (93%)
    Библиотека кодирования : XviD 1.2.1 (UTC 2008-12-04)
    Аудио
    Идентификатор : 1
    Формат : MPEG Audio
    Версия формата : Version 1
    Профиль формата : Layer 3
    Идентификатор кодека : 55
    Идентификатор кодека/Подсказка : MP3
    Продолжительность : 3 м. 44 с.
    Вид битрейта : Постоянный
    Битрейт : 192 Кбит/сек
    Каналы : 2 канала
    Частота : 44, 1 КГц
    Метод сжатия : С потерями
    Размер потока : 5, 14 Мбайт (7%)
    Выравнивание : Разделение по промежуткам
    Продолжительность промежутка : 40 мс. (1, 00 видеокадр)
    Время предзагрузки промежутка : 500 мс.
    Библиотека кодирования : LAME3.99r
    Настройки программы : -m s -V 4 -q 0 -lowpass 18.6 -b 192
    Общее
    Полное имя : E: Казахстансие клипыСборник KZ клипов avi Часть 129 Алау тобы - Тында ALEXnROCK.avi
    Формат : AVI
    Формат/Информация : Audio Video Interleave
    Размер файла : 62, 3 Мбайт
    Продолжительность : 3 м. 15 с.
    Общий поток : 2667 Кбит/сек
    Программа кодирования : VirtualDubMod 1.5.10.3 |www.virtualdub-fr.org|| (build 2550/release)
    Библиотека кодирования : VirtualDubMod build 2550/release
    Видео
    Идентификатор : 0
    Формат : MPEG-4 Visual
    Профиль формата : Advanced Simple@L5
    Настройки формата : BVOP2
    Параметр BVOP формата : 2
    Параметр QPel формата : Нет
    Параметр GMC формата : Без точки перехода
    Параметр матрицы формата : Default (H.263)
    Режим смешивания : Сжатый битовый поток
    Идентификатор кодека : XVID
    Идентификатор кодека/Подсказка : XviD
    Продолжительность : 3 м. 15 с.
    Битрейт : 2465 Кбит/сек
    Ширина : 720 пикселей
    Высота : 400 пикселей
    Соотношение сторон : 16: 9
    Частота кадров : 25, 000 кадров/сек
    Цветовое пространство : YUV
    Субдискретизация насыщенности : 4: 2: 0
    Битовая глубина : 8 бит
    Тип развёртки : Прогрессивная
    Метод сжатия : С потерями
    Бит/(Пиксели*Кадры) : 0.342
    Размер потока : 57, 6 Мбайт (92%)
    Библиотека кодирования : XviD 1.2.1 (UTC 2008-12-04)
    Аудио
    Идентификатор : 1
    Формат : MPEG Audio
    Версия формата : Version 1
    Профиль формата : Layer 3
    Идентификатор кодека : 55
    Идентификатор кодека/Подсказка : MP3
    Продолжительность : 3 м. 15 с.
    Вид битрейта : Постоянный
    Битрейт : 192 Кбит/сек
    Каналы : 2 канала
    Частота : 44, 1 КГц
    Метод сжатия : С потерями
    Размер потока : 4, 49 Мбайт (7%)
    Выравнивание : Разделение по промежуткам
    Продолжительность промежутка : 40 мс. (1, 00 видеокадр)
    Время предзагрузки промежутка : 500 мс.
    Библиотека кодирования : LAME3.99r
    Настройки программы : -m s -V 4 -q 0 -lowpass 18.6 -b 192
    Общее
    Полное имя : E: Казахстансие клипыСборник KZ клипов avi Часть 130 Камшат Жолдыбаева - Суйіктім ALEXnROCK.avi
    Формат : AVI
    Формат/Информация : Audio Video Interleave
    Размер файла : 75, 2 Мбайт
    Продолжительность : 3 м. 53 с.
    Общий поток : 2702 Кбит/сек
    Программа кодирования : VirtualDubMod 1.5.10.3 |www.virtualdub-fr.org|| (build 2550/release)
    Библиотека кодирования : VirtualDubMod build 2550/release
    Видео
    Идентификатор : 0
    Формат : MPEG-4 Visual
    Профиль формата : Advanced Simple@L5
    Настройки формата : BVOP2
    Параметр BVOP формата : 2
    Параметр QPel формата : Нет
    Параметр GMC формата : Без точки перехода
    Параметр матрицы формата : Default (H.263)
    Режим смешивания : Сжатый битовый поток
    Идентификатор кодека : XVID
    Идентификатор кодека/Подсказка : XviD
    Продолжительность : 3 м. 53 с.
    Битрейт : 2500 Кбит/сек
    Ширина : 720 пикселей
    Высота : 408 пикселей
    Соотношение сторон : 16: 9
    загрузка...
    Рейтинг →
     (голосов: 1, оценка 5/5, голосовать можно 1 раз )

    Другие торренты по теме:

  • Сборник клипов - Philizz "Video Yearmix" (2017) WEB-DLRip [H.264 / 1080p]
  • Сборник клипов - Best of Hits 90s от ALEXnROCK (2017) WEBRip [H.264 / 720p-LQ] (часть 3)
  • Чи-Ли - Сборник клипов (2005-2015) DVDRip WebRip
  • Сборник клипов - Philizz "Video YearMix" (2015) HDTV [1080p]
  • Сборник клипов - Philizz "Tropical Summer" (2016) HDTV [1080p]
  • Сборник клипов - Philizz "I covered the 80s" (season 1, episode 1-5) (2016) WEB-DLRip [H.264 / 720-LQ]
  • Сборник клипов - Philizz "Video Yearmix" (2016) HDTV [AVC / 1080p]
  • Сборник клипов - Philizz "Back To The 90s" (episode 1) (2017) WEB-DLRip [720p]


    • Комментарии (0):

      Информация

      Информация

        Посетители, находящиеся в группе Гости, не могут оставлять комментарии в данной новости.

        ↓ Меню




        ↓ Опрос

        Вы добавили сайт в закладки?
        Да
        Нет


        Top 10 за месяц (Фильмы)