.
Авторизация | Регистрация
Хочешь лучшие торренты? Добавь свой email!
Добавить

Торрент скачать бесплатно

» » Человек за солнцем / Hei tai yang 731 (1988) DVDRip [VO] торрент скачать бесплатно




    Человек за солнцем / Hei tai yang 731 (1988) DVDRip [VO] торрент скачать бесплатно

    Опубликовал: Админ | Дата: 1-12-2017, 05:00 | Просмотров: 0

    Производство: Гонконг, Китай/Sil-Metropole Organisation
    Жанр: Военный, Драма, Ужасы
    Режиссер: Тун Фей Моу

    Актеры
    Цзяньсинь Чен, Хсю Гоу, Зе Кван, Ганг Ванг, Ти Лонг Джин, Pengyu Liu, Xuhui Liu, Чжаохуа Мэй

    Описание

    В 40-х годах японское командование в оккупированной Манчжурии создало концентрационный Лагерь 731. Узники, чаще китайцы, были материалом для испытаний переносимости экстремальных условий, например, холод, высота, а также для испытаний бактериологического оружия. Среди японцев кто сразу, а кто постепенно привыкает к мысли, что узники не люди, а рассходный материал. Ярче всего это происходит у команды мобилизованных подростков.

    Продолжительность: 01: 41: 01
    Качество видео: DVDRip
    Перевод: Одноголосый закадровый
    Субтитры: отсутствуют
    Видео: Xvid, 720x384, ~1860 Kbps
    Аудио: AC3, 2 ch, 256 Kbps

    General
    Complete name : /media/win/TORRENT/UPLOAD TORRENTS/Hei.tai.yang.731.1988.VO.DVDRip.avi
    Format : AVI
    Format/Info : Audio Video Interleave
    Format profile : OpenDML
    Format settings : rec
    File size : 1.50 GiB
    Duration : 1 h 41 min
    Overall bit rate : 2 122 kb/s
    Writing application : AVI-Mux GUI 1.17.8.3, Feb 16 201019: 42: 50
    Video
    ID : 0
    Format : MPEG-4 Visual
    Format profile : Advanced Simple@L5
    Format settings : BVOP1
    Format settings, BVOP : 1
    Format settings, QPel : No
    Format settings, GMC : No warppoints
    Format settings, Matrix : Default (H.263)
    Muxing mode : Packed bitstream
    Codec ID : XVID
    Codec ID/Hint : XviD
    Duration : 1 h 41 min
    Bit rate : 1 860 kb/s
    Width : 720 pixels
    Height : 384 pixels
    Display aspect ratio : 1.85: 1
    Frame rate : 25.000 FPS
    Color space : YUV
    Chroma subsampling : 4: 2: 0
    Bit depth : 8 bits
    Scan type : Progressive
    Compression mode : Lossy
    Bits/(Pixel*Frame) : 0.269
    Stream size : 1.31 GiB (88%)
    Writing library : XviD 1.2.1 (UTC 2008-12-04)
    Audio
    ID : 1
    Format : AC-3
    Format/Info : Audio Coding 3
    Codec ID : 2000
    Duration : 1 h 41 min
    Bit rate mode : Constant
    Bit rate : 256 kb/s
    Channel(s) : 2 channels
    Channel positions : Front: L R
    Sampling rate : 48.0 kHz
    Frame rate : 31.250 FPS (1536 SPF)
    Bit depth : 16 bits
    Compression mode : Lossy
    Stream size : 185 MiB (12%)
    Alignment : Aligned on interleaves
    Interleave, duration : 64 ms (1.60 video frames)
    Interleave, preload duration : 192 ms
    Title : VO
    Service kind : Complete Main


    Онлайн видео Человек за солнцем



    Человек за солнцем/Hei tai yang 731 (1988) DVDRip [VO]
    загрузка...
    Рейтинг →
     (голосов: 1, оценка 3/5, голосовать можно 1 раз )

    Другие торренты по теме:

  • Человек тьмы 3: Умри, Человек тьмы / Darkman 3: Die Darkman Die (1996) HDRip [H.264]
  • Железный человек 3 / Iron Man 3 (2013) BDRemux 3D [1080p] [3D / 2D]
  • Человек ноября / The November Man (2014) WEBRip [Звук с CamRip]
  • Неудобный человек (1978) TVRip (2 серии)
  • Хороший человек / A Good Man (2014) BDRip [576p] iPad
  • Новый Человек-паук: Высокое напряжение / The Amazing Spider-Man 2 (2014) BDRip [576p] iPad
  • Человек ноября / The November Man (2014) HDTVRip [H.264 / 720p-LQ] [Line]
  • Человек ноября / The November Man (2014) HDTVRip [Line]


    • Комментарии (0):

      Информация

      Информация

        Посетители, находящиеся в группе Гости, не могут оставлять комментарии в данной новости.

        ↓ Меню




        ↓ Опрос

        Вы добавили сайт в закладки?
        Да
        Нет


        Top 10 за месяц (Фильмы)