.
Авторизация | Регистрация
Хочешь лучшие торренты? Добавь свой email!
Добавить

Торрент скачать бесплатно

» » Женщина в песках / Suna no onna (1964) DVDRip [VO] торрент скачать бесплатно




    Женщина в песках / Suna no onna (1964) DVDRip [VO] торрент скачать бесплатно

    Опубликовал: Админ | Дата: 1-12-2017, 05:00 | Просмотров: 0

    Производство: Япония/Teshigahara Productions, Toho Film (Eiga) Co. Ltd.
    Жанр: Драма
    Режиссер: Хироси Тесигахара

    Актеры
    Эйдзи Окада, Кёко Кисида, Хироко Ито, Кодзи Мицуи, Сэн Яно, Киндзо Сэкигути, Киёхико Итиха, Хидэо Кандзэ, Хироюки Нисимото, Тамуцу Тамура

    Описание

    Ники Дзюмпэй, углубленный в себя энтомолог, собирает насекомых на японском побережье. Его встречают несколько местных жителей и предлагают ему ночлег у женщины. Они приводят Ники к хижине, находящейся на дне песочной ямы, куда он должен спуститься по веревочной лестнице к женщине, Киоко.
    На следующее утро он замечает, что лестницу убрали…
    Эта философская драма режиссера Хироси Тесигахары - экранизация романа классика японской литературы Кобо Абэ. Как и любую философскую притчу, этот фильм пересказать практически невозможно. Можно сказать только одно: все мы помещены в песочную яму по имени Ничто, в которой потеряли свою общечеловеческую природу, сохранив при этом индивидуальное лицо и трагическую сущность.

    Возраст: 18+ (зрителям, достигшим 18 лет. запрещено для детей)
    Продолжительность: 02: 03: 47
    Качество видео: DVDRip
    Перевод: Одноголосый закадровый
    Субтитры: отсутствуют
    Видео: DivX 5, 720x544, ~1571 Kbps
    Аудио: MP3, 2 ch, 128 Kbps

    General
    Complete name : /media/win/TORRENT/UPLOAD TORRENTS/Jenshina_v_peskah.avi
    Format : AVI
    Format/Info : Audio Video Interleave
    File size : 1.46 GiB
    Duration : 2 h 3 min
    Overall bit rate mode : Variable
    Overall bit rate : 1 687 kb/s
    Writing application : VirtualDubMod 1.5.4.1 (build 2178/release)
    Writing library : VirtualDubMod build 2178/release
    Video
    ID : 0
    Format : MPEG-4 Visual
    Format settings, BVOP : No
    Format settings, QPel : No
    Format settings, GMC : No warppoints
    Format settings, Matrix : Default (H.263)
    Codec ID : DX50
    Codec ID/Hint : DivX 5
    Duration : 2 h 3 min
    Bit rate : 1 571 kb/s
    Nominal bit rate : 6 951 kb/s
    Width : 720 pixels
    Height : 544 pixels
    Display aspect ratio : 4: 3
    Frame rate : 23.976 (24000/1001) FPS
    Color space : YUV
    Chroma subsampling : 4: 2: 0
    Bit depth : 8 bits
    Scan type : Progressive
    Compression mode : Lossy
    Bits/(Pixel*Frame) : 0.167
    Stream size : 1.36 GiB (93%)
    Writing library : DivX 5.1.1 (Maupiti) (UTC 2003-11-19)
    Audio
    ID : 1
    Format : MPEG Audio
    Format version : Version 1
    Format profile : Layer 3
    Format settings : Joint stereo/MS Stereo
    Codec ID : 55
    Codec ID/Hint : MP3
    Duration : 2 h 3 min
    Bit rate mode : Variable
    Bit rate : 104 kb/s
    Nominal bit rate : 128 kb/s
    Channel(s) : 2 channels
    Sampling rate : 48.0 kHz
    Frame rate : 41.667 FPS (1152 SPF)
    Compression mode : Lossy
    Stream size : 91.9 MiB (6%)
    Alignment : Aligned on interleaves
    Interleave, duration : 24 ms (0.58 video frame)
    Interleave, preload duration : 518 ms
    Writing library : LAME3.97
    Encoding settings : -m j -V 4 -q 2 -lowpass 17 --abr 128
    Language : Russian


    Онлайн видео Женщина в песках



    Женщина в песках/Suna no onna (1964) DVDRip [VO]
    загрузка...
    Рейтинг →
     (голосов: 1, оценка 5/5, голосовать можно 1 раз )

    Другие торренты по теме:

  • Женщина есть женщина / Une femme est une femme (1961) BDRip [H.264]
  • Воскресная женщина (Женщина на воскресенье) / La donna della domenica (1975) DVDRip [H.264]
  • Город грехов 2: Женщина, ради которой стоит убивать / Sin City: A Dame to Kill For (2014) HDRip
  • Город грехов 2: Женщина, ради которой стоит убивать / Sin City: A Dame to Kill For (2014) BDRip [H264]
  • Город грехов 2: Женщина, ради которой стоит убивать / Sin City: A Dame to Kill For (2014) HDRip
  • Женщина во дворе / Dans la cour (2014) HDRip [FR / RU Sub]
  • Город грехов 2: Женщина, ради которой стоит убивать / Sin City: A Dame to Kill For (2014) BDRip [720p]
  • Город грехов 2: Женщина, ради которой стоит убивать / Sin City: A Dame to Kill For (2014) Blu-ray [1080p]


    • Комментарии (0):

      Информация

      Информация

        Посетители, находящиеся в группе Гости, не могут оставлять комментарии в данной новости.

        ↓ Меню




        ↓ Опрос

        Вы добавили сайт в закладки?
        Да
        Нет


        Top 10 за месяц (Фильмы)