.
Авторизация | Регистрация
Хочешь лучшие торренты? Добавь свой email!
Добавить

Торрент скачать бесплатно

» » Один кусочек сахара / Ye habe ghand (2011) SATRip торрент скачать бесплатно




    Один кусочек сахара / Ye habe ghand (2011) SATRip торрент скачать бесплатно

    Опубликовал: Админ | Дата: 1-12-2017, 05:00 | Просмотров: 0

    Производство: Иран
    Жанр: Драма, Комедия, Семейный
    Режиссер: Реза Миркарими

    Актеры
    Реза Кианиан, Негар Джавахарян, Фархад Аслани, Саид Пурсамими, Париваш Назарие, Рима Раминфар, Асгар Хеммат, Хедая Хашеми, Амир-Хоссейн Арман

    Описание

    В старинном иранском городе живёт дружная семья. Старшие дочери уже вышли замуж и покинули дом родителей. Теперь замуж собирается младшая, и все сёстры приезжают домой, чтобы помочь матери с приготовлениями к свадьбе.

    Релиз от: miha2154
    Продолжительность: 01: 48: 51
    Качество видео: SATRip
    Перевод: Многоголосый закадровый (ГТРК Культура)
    Субтитры: отсутствуют
    Видео: Xvid, 672x384, ~1709 Kbps
    Аудио: AC3, 2 ch, 192 Kbps

    General
    Complete name : /media/win/TORRENT/UPLOAD TORRENTS/Один кусочек сахара.avi
    Format : AVI
    Format/Info : Audio Video Interleave
    File size : 1.45 GiB
    Duration : 1 h 48 min
    Overall bit rate : 1 911 kb/s
    Writing application : VirtualDubMod 1.5.10.2 (build 2540/release)
    Writing library : VirtualDubMod build 2540/release
    Copyright : miha2154
    Video
    ID : 0
    Format : MPEG-4 Visual
    Format profile : Advanced Simple@L5
    Format settings : BVOP1/Custom Matrix
    Format settings, BVOP : 1
    Format settings, QPel : No
    Format settings, GMC : No warppoints
    Format settings, Matrix : Custom
    Codec ID : XVID
    Codec ID/Hint : XviD
    Duration : 1 h 48 min
    Bit rate : 1 709 kb/s
    Width : 672 pixels
    Height : 384 pixels
    Display aspect ratio : 16: 9
    Frame rate : 25.000 FPS
    Color space : YUV
    Chroma subsampling : 4: 2: 0
    Bit depth : 8 bits
    Scan type : Progressive
    Compression mode : Lossy
    Bits/(Pixel*Frame) : 0.265
    Stream size : 1.30 GiB (89%)
    Writing library : XviD 65
    Audio
    ID : 1
    Format : AC-3
    Format/Info : Audio Coding 3
    Codec ID : 2000
    Duration : 1 h 48 min
    Bit rate mode : Constant
    Bit rate : 192 kb/s
    Channel(s) : 2 channels
    Channel positions : Front: L R
    Sampling rate : 48.0 kHz
    Frame rate : 31.250 FPS (1536 SPF)
    Bit depth : 16 bits
    Compression mode : Lossy
    Stream size : 149 MiB (10%)
    Alignment : Split accross interleaves
    Interleave, duration : 40 ms (1.00 video frame)
    Interleave, preload duration : 500 ms
    Service kind : Complete Main

    Скриншоты для ознакомления



    Все одноименные релизы в Клубе
    Время раздачи: с 09: 00 до 22: 00 до пяти скачавших (до появления первых 3-5 скачавших)


    Онлайн видео Один кусочек сахара



    Один кусочек сахара/Ye habe ghand (2011) SATRip
    загрузка...
    Рейтинг →
     (голосов: 1, оценка 4/5, голосовать можно 1 раз )

    Другие торренты по теме:

  • Один в один. Сезон №3. Выпуск №1 (2015.02.08) HDTV [H.264 / 1080i] скачать через торрент бесплатно
  • Один в один. Сезон №3. Выпуск №1 (2015.02.08) SATRip скачать через торрент бесплатно
  • Один в один. Сезон №3. Выпуск №2 (2015.02.15) SATRip
  • Один в один. Сезон №3. Выпуск №3 (2015.02.22) SATRip скачать через торрент бесплатно
  • Один в один. Сезон №3. Выпуск №11 (2015.04.19) SATRip скачать через торрент бесплатно
  • Один в один. Сезон №3. Выпуск №12 (2015.04.26) SATRip скачать через торрент бесплатно
  • Один в один. Сезон №3. Выпуск №13 (2015.05.10) SATRip скачать через торрент бесплатно
  • Один в один. Сезон №3. Выпуск №14 (2015.05.17) SATRip скачать через торрент бесплатно


    • Комментарии (0):

      Информация

      Информация

        Посетители, находящиеся в группе Гости, не могут оставлять комментарии в данной новости.

        ↓ Меню




        ↓ Опрос

        Вы добавили сайт в закладки?
        Да
        Нет


        Top 10 за месяц (Фильмы)