.
Авторизация | Регистрация
Хочешь лучшие торренты? Добавь свой email!
Добавить

Торрент скачать бесплатно

» » Вождь Бешеный Конь / Chief Crazy Horse (1955) BDRip [H.264 / 720р-LQ] [VO] торрент скачать бесплатно




    Вождь Бешеный Конь / Chief Crazy Horse (1955) BDRip [H.264 / 720р-LQ] [VO] торрент скачать бесплатно

    Опубликовал: Админ | Дата: 1-12-2017, 05:00 | Просмотров: 0

    Производство: США/Universal International Pictures (UI or U-I)
    Жанр: Вестерн
    Режиссер: Джордж Шерман
    Продюсер: Уильям Олленд, Леонард Голдштейн

    Актеры
    Виктор Мэтьюр, Сюзен Болл, Джон Ланд, Рэй Дэнтон, Кит Ларсен, Пол Гилфойл, Дэвид Джэнссен, Роберт Уоррик, Джеймс Милликэн, Моррис Анкрум

    Описание

    Когда молодой воин Лакота Сиу Бешеный Конь, которому были предсказаны великие дела, добивается своей невесты, его соперник Маленький Большой Человек идет на предательское соглашение с белыми людьми, и открывает им путь к месторождению золота в священных захоронениях Лакота. Начинается новая золотая лихорадка. Несмотря на перемирие, Лакота берутся за оружие, и Бешеный Конь становится военным вождем своего народа. Первоначальные победы индейцев приводят к неизбежным результатам. История, рассказанная с индейской точки зрения.

    Релиз от: Охрана (NNMCLUB)
    Продолжительность: 01: 26: 24
    Качество видео: BDRip
    Перевод: Одноголосый закадровый (NezPerce)
    Субтитры: Отсутствуют
    Видео: AVC/H.264, 1280x544, ~3231 Kbps
    Аудио 1: Русский, AC3, 2 ch, 192 Kbps, 48.0 kHz
    Аудио 2: Английский, AC3, 2 ch, 192 Kbps, 48.0 kHz

    General
    Unique ID : 241218109016316211512067146358914079622 (0xB578EAFD595773A88684B919B8E8DB86)
    Complete name : F: DownloadsВождь Бешеный Конь. 1955. NNMCLUB.mkv
    Format : Matroska
    Format version : Version 4/Version 2
    File size : 2.18 GiB
    Duration : 1h 26mn
    Overall bit rate : 3 617 Kbps
    Encoded date : UTC 2017-11-22 22: 31: 25
    Writing application : mkvmerge v7.0.0 (\'Where We Going\') 32bit built on Jun 9 2014 15: 08: 34
    Writing library : libebml v1.3.0 + libmatroska v1.4.1
    DURATION : 01: 26: 24.448000000
    NUMBER_OF_FRAMES : 162014
    NUMBER_OF_BYTES : 124426752
    _STATISTICS_WRITING_APP : mkvmerge v7.0.0 (\'Where We Going\') 32bit built on Jun 9 2014 15: 08: 34
    _STATISTICS_WRITING_DATE_UTC : 2017-11-22 22: 31: 25
    _STATISTICS_TAGS : BPS DURATION NUMBER_OF_FRAMES NUMBER_OF_BYTES
    Video
    ID : 1
    Format : AVC
    Format/Info : Advanced Video Codec
    Format profile : High@L4.1
    Format settings, CABAC : Yes
    Format settings, ReFrames : 8 frames
    Codec ID : V_MPEG4/ISO/AVC
    Duration : 1h 26mn
    Bit rate : 3 231 Kbps
    Width : 1 280 pixels
    Height : 544 pixels
    Display aspect ratio : 2.35: 1
    Frame rate mode : Constant
    Frame rate : 23.976 fps
    Color space : YUV
    Chroma subsampling : 4: 2: 0
    Bit depth : 8 bits
    Scan type : Progressive
    Bits/(Pixel*Frame) : 0.194
    Stream size : 1.91 GiB (87%)
    Title : Chief Crazy Horse
    Writing library : x264 core 125 r2208 d9d2288
    Encoding settings : cabac=1/ref=8/deblock=1: -1: -1/analyse=0x3: 0x133/me=umh/subme=10/psy=1/psy_rd=1.00: 0.10/mixed_ref=1/me_range=32/chroma_me=1/trellis=2/8x8dct=1/cqm=0/deadzone=21, 11/fast_pskip=0/chroma_qp_offset=-3/threads=6/lookahead_threads=1/sliced_threads=0/nr=0/decimate=0/interlaced=0/bluray_compat=0/constrained_intra=0/bframes=9/b_pyramid=2/b_adapt=2/b_bias=0/direct=3/weightb=1/open_gop=0/weightp=2/keyint=250/keyint_min=25/scenecut=40/intra_refresh=0/rc_lookahead=60/rc=2pass/mbtree=1/bitrate=3231/ratetol=1.0/qcomp=0.60/qpmin=0/qpmax=69/qpstep=4/cplxblur=20.0/qblur=0.5/ip_ratio=1.40/aq=1: 1.00
    Language : English
    Default : Yes
    Forced : No
    Audio #1
    ID : 2
    Format : AC-3
    Format/Info : Audio Coding 3
    Mode extension : CM (complete main)
    Format settings, Endianness : Big
    Codec ID : A_AC3
    Duration : 1h 26mn
    Bit rate mode : Constant
    Bit rate : 192 Kbps
    Channel(s) : 2 channels
    Channel positions : Front: L R
    Sampling rate : 48.0 KHz
    Bit depth : 16 bits
    Compression mode : Lossy
    Stream size : 119 MiB (5%)
    Title : Одноголосый закадровый, NezPerce
    Language : Russian
    Default : Yes
    Forced : No
    Audio #2
    ID : 3
    Format : AC-3
    Format/Info : Audio Coding 3
    Mode extension : CM (complete main)
    Format settings, Endianness : Big
    Codec ID : A_AC3
    Duration : 1h 26mn
    Bit rate mode : Constant
    Bit rate : 192 Kbps
    Channel(s) : 2 channels
    Channel positions : Front: L R
    Sampling rate : 48.0 KHz
    Bit depth : 16 bits
    Compression mode : Lossy
    Stream size : 119 MiB (5%)
    Title : Английский
    Language : English
    Default : No
    Forced : No

    Скриншоты для ознакомления




    Все одноименные релизы в Клубе
    Время раздачи: с 13: 00 до 01: 00 МСК, выходные круглосуточно (до появления первых 3-5 скачавших)


    Онлайн видео Вождь Бешеный Конь



    Вождь Бешеный Конь/Chief Crazy Horse (1955) BDRip [H.264/720р-LQ] [VO]
    загрузка...
    Рейтинг →
     (голосов: 1, оценка 5/5, голосовать можно 1 раз )

    Другие торренты по теме:

  • Вождь Бешеный Конь / Chief Crazy Horse (1955) DVDRip [H.264] [VO]
  • Вождь Бешеный Конь / Chief Crazy Horse (1955) BDRemux [H.264 / 1080p]


    • Комментарии (0):

      Информация

      Информация

        Посетители, находящиеся в группе Гости, не могут оставлять комментарии в данной новости.

        ↓ Меню




        ↓ Опрос

        Вы добавили сайт в закладки?
        Да
        Нет


        Top 10 за месяц (Фильмы)