.
Авторизация | Регистрация
Хочешь лучшие торренты? Добавь свой email!
Добавить

Торрент скачать бесплатно

» » Чужое лицо / Tanin no kao (1966) DVDRip [AVO] торрент скачать бесплатно




    Чужое лицо / Tanin no kao (1966) DVDRip [AVO] торрент скачать бесплатно

    Опубликовал: Админ | Дата: 1-12-2017, 05:00 | Просмотров: 0

    Производство: Япония/Teshigahara Productions, Tokyo Eiga Co Ltd.
    Жанр: Драма
    Режиссер: Хироси Тэсигахара

    Актеры
    Тацуя Накадаи, Хисаси Игава, Машико Кио, Микиджиро Хира, Киоко Кишида, Эйджи Окада

    Описание

    В результате неудачного опыта ученый потерял лицо. Но обожженную кожу доктор предлагает скрыть под маской, досконально имитирующей человеческое лицо, и господин Окуяма соглашается. Теперь он другой человек - свободный от прошлой жизни, от собственной жены и друзей, наконец, от самого себя. Чужое лицо позволяет ему пойти на серьезный психологический эксперимент...

    Релиз от: teko
    Продолжительность: 02: 01: 58
    Качество видео: DVDRip
    Перевод: Одноголосый закадровый, авторский (Антон Алексеев)
    Субтитры: отсутствуют
    Видео: Xvid, 624x480, ~1572 Kbps
    Аудио: MP3, 1 ch, 128 Kbps

    General
    Complete name : /media/win/TORRENT/UPLOAD TORRENTS/Tanin.no.kao1966.dvdrip.avi
    Format : AVI
    Format/Info : Audio Video Interleave
    File size : 1.46 GiB
    Duration : 2 h 1 min
    Overall bit rate : 1 709 kb/s
    Writing application : VirtualDubMod 1.5.10.3 |www.virtualdub-fr.org|| (build 2550/release)
    Writing library : VirtualDubMod build 2550/release
    Video
    ID : 0
    Format : MPEG-4 Visual
    Format profile : Advanced Simple@L5
    Format settings : BVOP2/Custom Matrix
    Format settings, BVOP : 2
    Format settings, QPel : No
    Format settings, GMC : No warppoints
    Format settings, Matrix : Custom
    Codec ID : XVID
    Codec ID/Hint : XviD
    Duration : 2 h 1 min
    Bit rate : 1 572 kb/s
    Width : 624 pixels
    Height : 480 pixels
    Display aspect ratio : 4: 3
    Frame rate : 23.976 (24000/1001) FPS
    Color space : YUV
    Chroma subsampling : 4: 2: 0
    Bit depth : 8 bits
    Scan type : Progressive
    Compression mode : Lossy
    Bits/(Pixel*Frame) : 0.219
    Stream size : 1.34 GiB (92%)
    Writing library : XviD 73
    Audio
    ID : 1
    Format : MPEG Audio
    Format version : Version 1
    Format profile : Layer 3
    Codec ID : 55
    Codec ID/Hint : MP3
    Duration : 2 h 1 min
    Bit rate mode : Constant
    Bit rate : 128 kb/s
    Channel(s) : 1 channel
    Sampling rate : 48.0 kHz
    Frame rate : 41.667 FPS (1152 SPF)
    Compression mode : Lossy
    Stream size : 112 MiB (7%)
    Alignment : Aligned on interleaves
    Interleave, duration : 42 ms (1.00 video frame)
    Interleave, preload duration : 504 ms
    Writing library : LAME3.98r
    Encoding settings : -m m -V 4 -q 2 -lowpass 20.5 -b 128

    Скриншоты для ознакомления



    Все одноименные релизы в Клубе
    Время раздачи: с 09: 00 до 22: 00 до пяти скачавших (до появления первых 3-5 скачавших)


    Онлайн видео Чужое лицо



    Чужое лицо/Tanin no kao (1966) DVDRip [AVO]
    загрузка...
    Рейтинг →
     (голосов: 1, оценка 4/5, голосовать можно 1 раз )

    Другие торренты по теме:

  • Чужое лицо (2017) WEBRip (серии 1-20 из 20)
  • Чужое лицо (2015) SATRip скачать через торрент бесплатно
  • Чужое лицо (2015) HDTVRip [H.264 / 720p-LQ] скачать через торрент бесплатно
  • Чужое лицо (2017) WEB-DL [H.264 / 1080p-LQ] (серии 1-2 из 20) (обновляемая)


    • Комментарии (0):

      Информация

      Информация

        Посетители, находящиеся в группе Гости, не могут оставлять комментарии в данной новости.

        ↓ Меню




        ↓ Опрос

        Вы добавили сайт в закладки?
        Да
        Нет


        Top 10 за месяц (Фильмы)