.
Авторизация | Регистрация
Хочешь лучшие торренты? Добавь свой email!
Добавить

Торрент скачать бесплатно

» » Сожженная карта / Moetsukita chizu (1968) DVDRip [AVO] торрент скачать бесплатно




    Сожженная карта / Moetsukita chizu (1968) DVDRip [AVO] торрент скачать бесплатно

    Опубликовал: Админ | Дата: 1-12-2017, 05:00 | Просмотров: 0

    Производство: Япония/Katsu Production Co. Ltd.
    Жанр: Драма, Детектив
    Режиссер: Хироси Тэсигахара

    Актеры
    Синтаро Кацу, Эцуко Итихара, Осаму Окава, Киёси Ацуми, Тамао Накамура, Киндзо Шин, Рейко Касахара, Хосэй Комацу, Акико Кудо, Аико Нагаяма

    Описание

    Часть трилогии, снятой Хироси Тэсигахара по романам Кобо Абэ Женщина в песках — Чужое лицо — Сожженная карта.
    Частный детектив был нанят женщиной, которая хочет найти своего пропавшего мужа. С самого начала он сталкивается с ситуацией, когда никто в окружении пропавшего - в семье и на работе - не хочет его найти, а только узнать причину исчезновения.

    Релиз от: teko
    Продолжительность: 01: 54: 48
    Качество видео: DVDRip
    Перевод: Одноголосый закадровый, авторский (Антон Алексеев)
    Субтитры: отсутствуют
    Видео: Xvid, 704x288, ~1614 Kbps
    Аудио: AC3, 1 ch, 192 Kbps

    General
    Complete name : /media/win/TORRENT/UPLOAD TORRENTS/Moetsukita.chizu.1968..dvdrip_1.46.avi
    Format : AVI
    Format/Info : Audio Video Interleave
    File size : 1.46 GiB
    Duration : 1 h 54 min
    Overall bit rate : 1 816 kb/s
    Writing application : VirtualDubMod 1.5.10.3 |www.virtualdub-fr.org|| (build 2550/release)
    Writing library : VirtualDubMod build 2550/release
    Video
    ID : 0
    Format : MPEG-4 Visual
    Format profile : Advanced Simple@L5
    Format settings : BVOP2/Custom Matrix
    Format settings, BVOP : 2
    Format settings, QPel : No
    Format settings, GMC : No warppoints
    Format settings, Matrix : Custom
    Codec ID : XVID
    Codec ID/Hint : XviD
    Duration : 1 h 54 min
    Bit rate : 1 615 kb/s
    Width : 704 pixels
    Height : 288 pixels
    Display aspect ratio : 2.40: 1
    Frame rate : 23.976 (24000/1001) FPS
    Color space : YUV
    Chroma subsampling : 4: 2: 0
    Bit depth : 8 bits
    Scan type : Progressive
    Compression mode : Lossy
    Bits/(Pixel*Frame) : 0.332
    Stream size : 1.30 GiB (89%)
    Writing library : XviD 73
    Audio
    ID : 1
    Format : AC-3
    Format/Info : Audio Coding 3
    Codec ID : 2000
    Duration : 1 h 54 min
    Bit rate mode : Constant
    Bit rate : 192 kb/s
    Channel(s) : 1 channel
    Channel positions : Front: C
    Sampling rate : 48.0 kHz
    Frame rate : 31.250 FPS (1536 SPF)
    Bit depth : 16 bits
    Compression mode : Lossy
    Stream size : 158 MiB (11%)
    Alignment : Split accross interleaves
    Interleave, duration : 42 ms (1.00 video frame)
    Interleave, preload duration : 500 ms
    Service kind : Complete Main

    Скриншоты для ознакомления



    Все одноименные релизы в Клубе
    Время раздачи: с 09: 00 до 22: 00 до пяти скачавших (до появления первых 3-5 скачавших)


    Онлайн видео Сожженная карта



    Сожженная карта/Moetsukita chizu (1968) DVDRip [AVO]
    загрузка...
    Рейтинг →
     (голосов: 1, оценка 3/5, голосовать можно 1 раз )

    Другие торренты по теме:

  • Григорий Данилевский | Сожженная Москва (1957) [PDF, DJVU] скачать через торрент бесплатно


    • Комментарии (0):

      Информация

      Информация

        Посетители, находящиеся в группе Гости, не могут оставлять комментарии в данной новости.

        ↓ Меню




        ↓ Опрос

        Вы добавили сайт в закладки?
        Да
        Нет


        Top 10 за месяц (Фильмы)